&title=チルノのパーフェクトさんすう教室
&artist=ARM+夕野ヨシミ(IOSYS)feat. miko
&wholebpm=175
&demo_seek=77.6
&demo_len=22.4
&lv_1=2
&lv_2=3
&lv_3=7
&lv_4=10
&lv_5=12+
&des_4=はっぴー
&des_5=某S氏
&inote_1=(175.0){1},,,,,,,,,
{1}1,,
{1}2,,
{1}8,
{1}7,
{1}6,
{1}7b,
{1}8,
{1}1,
{1}2,
{1}3,
{1}2,
{1}1,
{1}8,
{1}7,
{1}6,
{1}5,
{1}4,
{1}3,
{1}4,
{1}5,
{1}6h[1:1],,
{1}8,
{1}8,
{1}1,
{1}2,
{1}1,
{1}1,
{2}8,8,
{1}8b,
{1}1,
{1}1,
{1}2,
{1}3,
{2}2,1,
{1}8b,
{1}1-4[2:1],,
{1}5,,
{1}6,,
{1}5,
{1}4,
{1}3,
{1}2b,
{2}1,1,
{1}1,
{2}8,7,
{1}6,
{1}7-2[2:1],,
{2}2,3,
{1}1/2,
{2}8,8,
{1}8,
{2}7,6,
{1}5,
{1}4h[1:1],,
{2}5,6,
{1}7b,
{1}8,
{1}1,
{1}8,
{1}7,
{1}6,
{1}5,
{1}6,
{1}8/7,
{1}1,
{1}2,
{1}1,
{1}8,
{1}7,
{1}6,
{1}7,
{4}8,,,8b,
E
&inote_2=(175.0){1},4,
{1}5,
{2}4,5,
{1}4,
{1}3,
{1}2,
{2}1,8,
{1}8/1,
{1}1-4[4:3],,
{1}8-5[4:3],,
{1}1,
{1}8,
{2}1,8,
{1}1b,
{1}1h[8:3],
{1}8h[8:3],
{1}1h[8:3],
{2}8,7,
{1}6h[8:3],
{1}5h[8:3],
{1}6h[8:3],
{2}5,4,
{1}3h[8:3],
{1}2h[8:3],
{1}3h[8:3],
{2}2,1,
{1}8h[8:3],
{1}7h[8:3],
{1}8,
{1}1,
{1}8,
{1}7,
{1}8-5[4:3],,
{1}1,
{1}2,
{1}1-4[4:3],,
{1}6,
{1}7,
{1}8,
{1}1,
{2}8,1,
{2}8/1,1/8,
{1}2h[2:1],
{1}3h[2:1],
{1}4,
{1}4,
{1}5,
{1}5,
{2}6,6,
{2}7,7,
{2}8,1,
{1}8h[2:1]/1h[2:1],
{2}1,2,
{2}3,4,
{2}5,6,
{2}7,8,
{1}1h[2:1],
{1}8h[2:1],
{2}1,2,
{4}1,1,1,,
{2}8,7,
{2}6,5,
{2}4,3,
{2}2,1,
{1}8h[2:1],
{1}1h[2:1],
{2}8,1,
{1}1b/8b,
{1}8h[8:3],
{1}1h[8:3],
{1}8h[8:3],
{2}1,2,
{1}3h[8:3],
{1}4h[8:3],
{1}3h[8:3],
{2}4,5,
{1}6h[8:3],
{1}7h[8:3],
{1}6h[8:3],
{2}7,8,
{1}1h[8:3],
{1}2h[8:3],
{2}1,8,
{4}1/8,,,1b,
E
&inote_3=(175.0){1},
{4}2,2,,,
{4}7,7,,,
{2}2/1,8/7,
{4}1,8,,,
{4}4,4,,,
{4}5,5,,,
{2}4/3,6/5,
{4}3,6,,,
{2}6,6,
{1}7-3[4:1],
{2}2,2,
{1}2-6[4:1],
{2}1h[2:1],3,
{2}8h[2:1],6,
{2}7,2,
{1}5-8[4:1],
{1}2h[8:3],
{1}7h[8:3],
{1}3h[8:3],
{1}6h[8:3],
{8}2,,,2,,,,,
{8}1,,,1,,,,,
{8}8,,,8,,,,,
{8}7,,,7,,,,,
{8}1,,,8,,,,,
{8}8,,,1,,,,,
{8}2,,,1,,,,,
{4}7h[2:1],,,8,
{1}1-6[4:1],
{1}8-3[4:1],
{1}2h[4:3],
{4}6,7,8,8b,
{2}1,2,
{2}6,5,
{2}3,4,
{2}8,7,
{1}2h[2:1],
{1}7h[2:1],
{2}8,7,
{4}1,8,1,,
{4}6,6,5,,
{4}3,3,4,,
{4}3,4,5,6,
{2}7h[2:1],8,
{1}7h[357:178]/1h[2000:999],
{4}1,1,1,1/8,
{2}8,7,
{1}6-3[4:1]/7-2[4:1],
{1}4,
{1}4,
{1}5,
{1}5,
{2}3,2,
{2}6,7,
{2}1,8,
{1}8h[2:1]/1h[2:1],
{4}1,1,2,2,
{4}3,4,5/6,,
{4}8,8,7,7,
{4}6,5,4b/3b,,
{2}2h[2:1],1,
{2}7h[2:1],8,
{2}1h[2:1],8h[2:1],
{4}1,2,3b,,
{4}2,2,7,7,
{4}2,1,7/8,,
{4}7,7,2,2,
{4}7,8,1/2,,
{1}1-4[4:1],
{1}8-5[4:1],
{1}1-4[4:1]/8-5[4:1],,
{8}2h[8:3],,,,,2,,,
{8}1h[8:3],,,,,1,,,
{8}8h[8:3],,,,,8,,,
{8}7h[8:3],,,,,7,,,
{8}3h[8:3],,,,,3,,,
{8}4h[8:3],,,,,4,,,
{8}5h[8:3],,,,,5,,,
{8}6h[8:3],,,,,6,,,
{1}7/2-5[4:1],
{1}2/7-4[4:1],
{1}7/2-5[4:1],
{1}2/7-4[4:1],
{1}2-5[4:1],
{1}7-2[4:1],
{1}1-6[4:1],
{4}7/8,1/8,2/1,1b,
E
&inote_4=(175.0){1},,,,,,,,,
{2}2/5h[1:1],1,
{1}8^5[4:1],
{2}7/4h[1:1],8,
{1}1^4[4:1],
{2}1/6,8/3,
{2}1-4[8:1],8-5[8:1],
{2}2h[2:1],7,
{2}4/5,1/6,
{4}8/2,4,7/1,5,
{4}8/2,4,7/1,5,
{4}8/2,4,7/1,5,
{4}8/2,4,8/2,4,
{4}7/1h[4:1],5,2/8h[4:1],4,
{4}7/1h[4:1],5,2/8h[4:1],4,
{4}7/1h[4:1],5,2/8h[4:1],4,
{4}7/1h[4:1],5,7/1h[4:1],5,
{4}8/2h[4:1],4,1/7h[4:1],5,
{4}8/2h[4:1],4,1/7h[4:1],5,
{4}8/2h[4:1],4,1/7h[4:1],5,
{4}8/2h[4:1],4,8/2h[4:1],4,
{4}1/7,5,8/2,4,
{4}7/1,5,8/2,4,
{16}7/4,,,4,,,5/2,,,5,,,3/6,,,,
{4}5/4-1[8:1],,,1b,
{2}7h[2:1],5,
{2}2h[2:1],4,
{2}1h[4:3],8h[4:1],
{4}8/2,1/7,8/2,,
{2}7h[4:3],5h[4:3],
{2}3h[4:3],1h[4:1],
{2}2-5[8:1],7-4[8:1],
{4}1/6,2/8,1/6,8/2,
{2}1h[4:3],4h[4:3],
{2}5h[4:3],8h[4:1],
{2}2h[4:3],7h[4:1],
{4}8/6,1/3,8/6,,
{4}8,1,7h[4:1],2,
{4}1/6,3/8,1/6,,
{2}8^5[8:1],1^4[8:1],
{4}2/1,6/4,1/2,4/6,
{2}2<5[4:1],2,
{2}4>7[4:1],4,
{2}6>1[4:1],6,
{2}8<3[4:1],8,
{2}5/2,7/4,
{4}4/3,6/5,2/4,7/5,
{2}5-2[8:1],4-7[8:1],
{1}1^4[4:1]/8^5[4:1],
{2}5h[1:1]/2h[4:1],1h[4:1],
{1}8^5[4:1],
{2}4h[1:1]/7h[4:1],8h[4:1],
{1}1^4[4:1],
{2}6h[4:1]/1h[4:1],3h[4:1]/8h[4:1],
{2}1-4[8:1],8-5[8:1],
{2}2h[4:3],7h[4:1],
{4}2/7,4/5,8/3,,
{2}2h[4:1]/5h[1:1],1h[4:1],
{1}8^5[4:1],
{2}4h[1:1]/7h[4:1],8h[4:1],
{1}1^4[4:1],
{2}6h[4:1]/1h[4:1],3h[4:1]/8h[4:1],
{2}1-4[8:1],8-5[8:1],
{2}3h[4:3],6h[4:1],
{4}2/7,3/4,5/6,3b/8b,
{4}2/8h[4:1],4,7/1h[4:1],5,
{4}2/8h[4:1],4,7/1h[4:1],5,
{4}2/8h[4:1],4,7/1h[4:1],5,
{4}2/8h[4:1],4,2/8h[4:1],4,
{4}1/7h[4:1],5,8/2h[4:1],4,
{4}1/7h[4:1],5,8/2h[4:1],4,
{4}1/7h[4:1],5,8/2h[4:1],4,
{4}1/7h[4:1],5,1/7h[4:1],5,
{4}2/8h[4:1],4,7/1h[4:1],5,
{4}2/8h[4:1],4,7/1h[4:1],5,
{4}8/2h[4:1],4,1/7h[4:1],5,
{4}8/2h[4:1],4,8/2h[4:1],4,
{4}7/1h[4:1],5,2/8h[4:1],4,
{4}7/1h[4:1],5,2/8h[4:1],4,
{16}7/4,,,4,,,2/5,,,5,,,6/3,,,,
{4}5/4-1[8:1],,,1b,
E
&inote_5=(175.0){1},
{8}7,8,1,2,,1,8,7,
{8}6,5,4,3,,4,5,6,
{8}7/3,8,1,2,1/5,4,3,2,
{8}7/3,4,5,6,,1b,1b,,
{8}8/4,5,6,7,,1,2,3,
{8}5/1,4,3,2,,7,8,1,
{8}2/6,3,4,3,4/8,5,6,5,
{8}8/4,7/3,2/6,1/5,,5,4,3,
{1}2-5[2:1],
{8},4,3,2,1,4,5,6,
{1}7-4[2:1],
{16},,8,7,6,5,4,3,2,,,,1,,8,,
{8}2/7,,,4,5,,6/3,,
{16}2,,1,2,1,,2,,7,,8,,7,,8,,
{8}6-2[8:1],6,,,3-7[8:1],3,,,
{8}5/4,4-1[8:1]/5-8[8:1],,,,2b,2b,,
{8}1h[8:3],,2,8h[4:1],,7,,,
{8}8h[8:3],,7,1h[4:1],,2,,,
{8}1h[8:3],,2,8h[4:1],,7,,,
{8}1,8,2,8h[4:1],,7,1,7,
{8}1h[8:3],,2,8h[4:1],,7,,,
{8}8h[8:3],,7,1h[4:1],,2,,,
{8}1h[8:3],,2,8h[4:1],,7,,,
{16}2,1,8,7,6,5,4,3,2,,1,,8,,7,,
{8}2h[8:3],,3,7h[4:1],,6,,,
{8}7h[8:3],,6,2h[4:1],,3,,,
{8}2h[8:3],,3,7h[4:1],,6,,,
{8}2,7,3,7h[4:1],,6,3,6,
{8}4h[8:3],,3,5h[4:1],,6,,,
{8}5h[8:3],,6,4h[4:1],,3,,,
{16}6,6,,4,4,,2,2,,8,8,,6,,4,,
{16}8,,3,,6,,1,8,,,,,1b,,,,
{8}5,6,2,3,8h[4:1],,7,,
{8}8,7,3,4,5h[4:1],,6,,
{8}3,4,5,6,1h[4:1],,3h[4:1],,
{8}5h[8:1],6,8h[8:1],6,7h[4:1],,5,,
{8}4,6,2,8,3-7[8:1],,,,
{8}8,2,6,4,7-3[8:1],,,,
{8}1,4,3,1,2,4,1,3,
{8}1-4[4:1],,,2,2h[4:1],,,,
{8}5,5,4,4,3h[4:1],1b,1b,,
{8}4,4,5,5,6h[4:1],8b,8b,,
{8}7,7,6,6,5h[4:1],,4,,
{4}2/6,3/7,5/1,,
{2}4/3,7/1,
{8}7/1,,7/1,,7/1,7/1,1/7,,
{2}4h[4:1],6h[4:1],
{16}1,2,3,4,5,6,7,8,1,2,3,4,5,6,7,8,
{1}1,
{1}3,
{1}5,
{1}7,
{4}5,4,3,2,
{4}4h[4:1],5h[4:1],6h[4:1],7h[4:1],
{4}2^7[10000:2501],7^4[4:1],4^1[4:1],1^6[4:1],
{4}6-1[4:1],1-4[4:1],,,
{4}2,3,4,5,
{8}6,7/8,2/1,4/3,6/5,7,6,5,
{4}4,3,2,1,
{16}8,,7,6,5,4,3,2,1,,,,8,,,,
{4}7h[4:1],1,2h[4:1],8,
{8}1,,8,,2,7,8b/1b,,
{8}8-5[8:1],8-4[2:1],8-3[8:1],,,,,,
{4}6/2,7/3,2/6,,
{4}7,6,5,4,
{8}3,2/1,8/7,6/5,3/4,2,3,4,
{4}5,6,7,8,
{16}1,,2,3,4,5,6,7,8,,,,1-6[8:1],,,,
{4}4-7[8:1],5-2[8:1],8-3[8:1],,
{8}2-5[8:1],1-6[8:1],,,8-3[8:1],7-4[8:1],,,
{2}1^6[8:1],8^3[8:1],{1},
{8}1h[8:3],,2,8h[8:3],,7,1h[4:1],,
{8}4h[8:3],,5,3h[8:3],,2,4h[4:1],,
{8}6h[8:3],,7,5h[8:3],,4,6h[4:1],,
{8}8b,,,8b,,,,,
{8}4h[8:3],,3,5h[8:3],,6,4h[4:1],,
{8}1h[8:3],,8,2h[8:3],,3,1h[4:1],,
{8}7h[8:3],,6,8h[8:3],,1,7h[4:1],,
{8}5b,,,5b,,,,,
{8}2b/1h[4:1],,8h[8:3],7b,,1,1/8,,
{8}7b/8h[4:1],,1h[8:3],2b,,8,1/8,,
{8}2b/1h[4:1],,8h[8:3],7b,,1,1/8,,
{8}1,8,2,8h[4:1],,7,1,7,
{8}1h[8:3],2,2,8h[8:3],7,7,1h[4:1],2,
{8}5h[8:3],6,6,4h[8:3],3,3,5h[4:1],6,
{16}4,4,,2,2,,8,8,,6,6,,1,,3,,
{16}2,,8,,4,,7,5-1[16:1],,,,,,
E
