&title=ウサテイ
&artist=あまね+ビートまりお(COOL&CREATE)
&wholebpm=190
&demo_seek=12.2
&demo_len=11.7
&lv_1=2
&lv_2=5
&lv_3=7
&lv_4=10+
&lv_5=14
&des_4=某S氏
&des_5=はっぴー
&inote_1=(190.0){1},,
{1}1,,
{1}8,,
{1}1,,
{1}8,,
{1}1-4[2:1],,,,
{1}5-8[2:1],,,
{1}1b,
{1}8,
{1}8,
{1}7,
{1}7,
{1}6,
{1}6,
{1}5,
{1}5,
{2}4,4,
{1}4,
{2}3,3,
{1}3,
{2}2,2,
{1}2,
{2}1,1,
{1}1,
{1}8h[1250:1249],,
{1}1h[1:1],,
{1}8,
{1}8,
{1}7,
{1}7,
{4}8,8,,,{1},
{4}1,1,,,{1},
{4}8,8,,,{1},
{4}7,7,,,
{2}8,1b,
{4}8,8,,,
{4}7,7,,,
{4}6,6,,,
{4}5,5,,,
{4}6,6,,,
{4}7,7,,,
{4}8,8,,,
{4}1,1,,,
{1}2-7[2:1],,
{1}6-3[2:1],,
{4}1,1,
{2}1,{1},
{4}8,8,
{2}8,{1},
{2}1,1,
{2}2,2,
{2}1,1,
{2}8,8,
{1}7h[1:1],,
{1}6h[1:1],,
{4}8,8,,,
{4}1,1,,,
{4}2,2,,,
{4}3,3,,,
{4}2,2b,,,
{4}1,1b,,,
{4}8,8b,,,
{4}7,7b,,,
{16},
{1}8h[1:1],,
E
&inote_2=(190.0){1},,
{1}1/8,,
{1}1/8,,
{1}1/8,
{1}1/8,
{2}1/8,1/8,
{2}1/8,1b/8b,
{1}1,
{1}2,
{1}3,
{2}4,4,
{1}5,
{1}6,
{1}7,
{2}8,8b,
{1}1h[1:1],,
{1}8h[1:1],,
{1}2h[1:1],,
{1}7h[1:1],,
{1}1-4[4:3],,
{1}8-5[4:3],,
{1}1-5[4:3],,
{1}8-4[4:3],,
{1}1,
{4}1,1,1,,
{1}3,
{4}3,3,3,,
{1}5,
{4}5,5,5,,
{1}7,
{2}7,7/8,
{2}8,8,
{4}7,7,7,,
{2}6,6,
{4}5,5,5,,
{2}4,4,
{4}3,3,3,,
{2}2,2,
{4}1,1,1b,,
{1}1h[2:1],
{1}8h[2:1],
{2}2,2,
{4}3,3,3b,,
{1}8h[2:1],
{1}1h[2:1],
{2}7,7,
{4}6,6,6b,,
{2}1,1,
{4}8,8,8,,
{4}2,2,1,,
{4}7,7,8b,,
{2}1,2,
{4}8,8,7,,
{4}7,7,8,8,
{4}1,1,2b,,
{2}4,4,
{2}3,3,
{2}2,2,
{4}1,1,1,,
{2}8,8,
{2}7,7,
{2}6,6,
{4}5,5,5,,
{4}7,8,7,,
{4}2,1,2,,
{4}3,3,4,4,
{4}5,5,6,6,
{4}6,5,6,,
{4}3,4,3,,
{4}2,2,1,1,
{4}8,8,7,7,
{1}1b/8b,
E
&inote_3=(190.0){1},,
{1}7/8,,
{1}1/2,
{4},,2,1,
{1}7/8,
{4},,7,8,
{2}1/2,1/2,
{1}1-4[16:5],
{2}7,5,
{4}3,,7/8,7/8,
{2}2,4,
{4}6,,1/2,1/2,
{2}7,5,
{4}3,,7/8,7/8,
{2}8,7,
{4}8/7,1/8,1b/2b,,
{4},3,,4,
{4},6,,5,
{4},3,,4,
{4},5,6,7,
{4},7,,8,
{4},2,,1,
{4},7,,8,
{4},1,2,3,
{4},3,,5,
{4},6,,4,
{4},3,,5,
{4},6,7,8,
{4},8,,6,
{4},7,,5,
{4},4,,2,
{4},3,2,1,
{2}7h[4:1],8h[4:1],
{4}1,2,3,,
{2}3h[4:1],4h[4:1],
{4}5,6,7,,
{2}7h[4:1],8h[4:1],
{4}1,2,3,,
{2}3h[4:1],4h[4:1],
{4}5,6,7,8,
{4}7,7,8,8,
{4}1,2,3,,
{4}3,3,4,4,
{4}5,6,7,,
{4}7,7,8,8,
{4}1,2,3,,
{2}3/4,5/6,
{4}7/8,8/7,1/2,,
{4}7b,8,7,8,
{4}2,1,2,1,
{4}3,4,5,6,
{1}7^2[16:5],
{4}2,1,2,1,
{4}7,8,7,8,
{4}6,5,4,3,
{1}3^6[16:5],
{4}7/8,7/8,7/8,,
{4}1/2,1/2,1/2,,
{4}3,4,6,5,
{1}4-1[16:5]/5-8[16:5],
{4}1/2,1/2,1/2,,
{4}7/8,7/8,7/8,,
{4}6,5,4,3,
{1}4-1[16:5]/5-8[16:5],
{2}8h[4:1]/7h[4:1],1h[4:1]/2h[4:1],
{4}7,8,2,1,
{4}2,2,1,1,
{1}8^5[16:5],
{2}6h[4:1]/5h[4:1],3h[4:1]/4h[4:1],
{4}2,1,7,8,
{4}7,7,8,8,
{1}1^4[16:5],
{2}3h[4:1]/4h[4:1],6h[4:1]/5h[4:1],
{4}7/8,8/7,2/1,1/2,
{4}3,4,6,5,
{1}5-8[16:5],
{2}8h[4:1]/7h[4:1],1h[4:1]/2h[4:1],
{2}7h[4:1]/8h[4:1],1h[4:1]/2h[4:1],
{4}7/8,8/7,1/2,2/1,
{1}4-1[16:5]/5-8[16:5],
{1}1b/8b,
E
&inote_4=(190.0){1},,
{2}2h[2:1],3h[2:1],
{8}4h[2:1],,,,6,5,6,,
{2}7h[2:1],6h[2:1],
{8}5h[2:1],,,,3,4,3,,
{2}2h[2:1],3h[2:1],
{8}4h[2:1],,,,6,5,6,,
{2}7h[2:1],6h[2:1],
{4}5,4,7b/2b,,
{4}6,5/6,3,3/4,
{4}6,7/5,2h[4:1],1,
{4}3,4/3,6,5/6,
{4}3,4/2,8h[4:1],7,
{4}6,5/6,3,4/3,
{4}7,7/8,1h[4:1],2,
{2}1^4[8:1],5^8[8:1],
{4}2/1,8/7,3/6-3[8:1],,
{4}4,4,5,5,
{4}4,4,5,5,
{4}3,3,6,6,
{8}2,,1,,8,7,8,,
{4}6,6,3,3,
{4}6,6,3h[4:1],4h[4:1],
{4}5,5,4,4,
{8}7,,8,,1,2,1,,
{4}2/1,3,4,5,
{4}8/7,6,5,4,
{4}2/1,3,4,5,
{8}7/8,,2/1,,4,5,4,,
{4}8/6,7,2,5,
{4}1/3,2,
{835}7,,,,,,,,,,,,,,,,,,,,,,,,,,,,,,,,,,,,,,,,,,,,,,,,,,,,,,,,,,,,,,,,,,,,,,,,,,,,,,,,,,,,,,,,,,,,,,,,,,,,,,,,,,,,,,,,,,,,,,,,,,,,,,,,,,,,,,,,,,,,,,,,,,,,,,,,,,,,,,,,,,,,,,,,,,,,,,,,,,,,,,,,,,,,,,,,,,,,,,,,,,,,,,,,
{833}4,,,,,,,,,,,,,,,,,,,,,,,,,,,,,,,,,,,,,,,,,,,,,,,,,,,,,,,,,,,,,,,,,,,,,,,,,,,,,,,,,,,,,,,,,,,,,,,,,,,,,,,,,,,,,,,,,,,,,,,,,,,,,,,,,,,,,,,,,,,,,,,,,,,,,,,,,,,,,,,,,,,,,,,,,,,,,,,,,,,,,,,,,,,,,,,,,,,,,,,,,,,,,,,,,
{4}8/6,7,3/1,2,
{8}4/3,,6/5,,1,8,1,,
{8}2,2,2,,8,8,8,,
{4}2h[4:1],3h[4:1],4h[4:1],5,
{8}7,7,7,,1,1,1,,
{8}7h[4:1],,6h[4:1],,5h[4:1],4,4,,
{8}2,2,2,,8,8,8,,
{4}2h[4:1],3h[4:1],4h[4:1],5,
{8}7,7,7,,1,1,1,,
{8}7h[4:1],,6h[4:1],,5h[4:1],4,4,,
{8}2,1,2,,7,8,7,,
{8}2,2,3,3,4,5,6,,
{8}7,8,7,,2,1,2,,
{8}7,7,6,6,5,4,3,,
{8}1,2,3,,8,7,6,,
{8}4,5,3,6,1,8,7/2,,
{2}4/3,6/5,
{4}3/4,6/5,5/4,2b/7b,
{4}2/8,8/2,7/1,1/7,
{4}2/8,2/8,1/7,1/7,
{4}2/8,7/1,8/2,1/7,
{4}2/1,7/4,8/3,6/5,
{4}1/7,1/7,2/8,2/8,
{4}1/7,1/7,2/8,2/8,
{4}1/7,2/8,1/7,2/8,
{4}8/7,2/5,6/1,4/3,
{4}2/1,3/8,8/7,1/6,
{4}2/1,3/8,8/7,1/6,
{4}2/1,4/8,8/7,1/5,
{4}1/3,8/6,4/7,2/5,
{4}2/1h[4:1],2,7/8h[4:1],7,
{4}2/1h[4:1],2,7/8h[4:1],7,
{4}1/2,8/7,3/4,5/6,
{4}1/2-5[8:1],1,8/7-4[8:1],8,
{4}4/5h[4:3],4,4,4,
{4}4/6h[4:1],4,4/7h[4:1],4,
{8}4/8h[4:1],,4,,4/1h[4:1],,4,1^6[8:5],
{4}4,3,2,1b,
{4}5/4h[4:3],5,5,5,
{4}5/3h[4:1],5,5/2h[4:1],5,
{8}5/1h[4:1],,5,,5/8h[4:1],,5,8^3[8:5],
{4}5,6,7,8b,
{4}6/2,7,8,1,
{4}2/6,3,4/8,7,
{4}5/1,2,3/7,4/6,
{4}6/8,1/3,6/2,4b/8b,
{4}7/3,2,1,8,
{4}7/3,6,1/5,2,
{4}4/8,7,6/2,5/3,
{8}3/1,,8/6,,3/7,,1,8,
{1}7b/2b,
E
&inote_5=(190.0){1},,
{8}7,7h[8:3],,,8,8h[8:3],,,
{8}1,1h[8:3],,,2,3-8[8:1],3,,
{8}2,2h[8:3],,,1,1h[8:3],,,
{8}8,8h[8:3],,,7,7-4[8:1],7,,
{8}3,3h[8:3],,,4,4h[8:3],,,
{8}5,5h[8:3],,,6,6-1[8:1],6,,
{8}8,8h[8:3],,,2,2h[8:3],,,
{8}4,,6,5,6-2[8:1],,,,
{8}8,8,7,8,1,1,2,1,
{8}7,7,6,7,5,4,3b,,
{8}1,1,2,1,8,8,7,8,
{8}2,2,3,2,4,5,6b,,
{16}1,,1,8,2,,2,,3,,4,,5,,6,,
{16}8,,8,1,7,,7,,6,,5,,4b,,,,
{16}7,,7,6,8,,1,,2,,2,3,1,,8,,
{8}7^4[8:1],4^1[8:1],,,,,8b,,
{8}3,2,3,4,3,2,3,4,
{8}3,2,3,4,4/3,2,3/4,5,
{8}6,7,6,5,6,7,6,5,
{8}6,7,6,5,6/5,7,5/6,8,
{8}7,8,7,6,7,8,7,6,
{8}7,8,7,6,8/7,6,8/7,1,
{8}2,3,2,1,2,3,2,1,
{8}2,3,2,1,1/2,3,2/1,4,
{8}3/4,2,3/4,5,4/3,2,3/4,5,
{8}4b/3b,2,4/3,5,4,4,6,6,
{8}6/5,7,5/6,4,5/6,7,5/6,4,
{8}6b/5b,7,5/6,4,6,6,1,1,
{8}7/8,1,7/8,6,7/8,1,7/8,6,
{8}7/8,1,8/7,6,3,3,8,8,
{8}1/2,8,1/2,3,1/2,8,1/2,3,
{8}1/2,8,1/2,3,4,5,6,7,
{8}8-4[4:1],,,,,,6,5,
{16}4,,3,,,,,,7,8,7,8,7b,,,,
{16}2,1,2,1,2b,,,,,,5/4,,5/4,,,,
{4},3^6[4:1],,,
{16}2,,2,1,3,,3,,7,,7,8,6,,6,,
{8}6,5,4,3,2h[4:1],,3,,
{16}8,,8,7,1,,8,,1,,1,2,8,,1,,
{8}3,4,5,6,7h[4:1],,6,,
{16}3,,3,4,2,,2,,6,,6,5,7,,7,,
{8}5,4,3,2,1-5[8:1],,,,
{16}6,,6,5,7,,6,,3,,3,4,2,,3,,
{8}4,5,6,7,8-4[8:1],,,,
{16}3,,3,4,2,,2,,7,,7,8,6,,6,,
{8}8,1,2,3,4h[4:1],,3,,
{2}5-1[8:1],4-8[8:1],
{4}6-1[8:1],3-8[8:1],2-5[8:1],7b,
{8}7^4[4:1],,4^1[4:1],,1,8,7,6,
{16}5,,4,,3,,3,4,3,,2,,1/2,,,,
{8}2^5[4:1],,5^8[4:1],,8,1,2,3,
{16}4,,5,,6,,6,5,6h[4:1],,,,7,,,,
{8}1^6[4:1],,6^3[4:1],,3,2,1,8,
{16}7,,6,,5,,3,4,3,,2,,2/1,,,,
{8}8^3[4:1],,3^6[4:1],,6,7,8,1,
{16}2,,3,,4,,6,5,6h[4:1],,,,7b,,,,
{16}2-5[8:1],,,,6,,,,5,,7,6,7,,7,,
{16}8,,1,,2,,2,3,2-6[8:1],,,,7b,,,,
{16}7-4[8:1],,,,3,,,,4,,2,3,2,,2,,
{16}1,,8,,7,,7,6,7-3[8:1],,,,8b,,,,
{16}6-1[8:1],,,,7,,,,8,,7,6,7,,5,,
{16}4,,3,,2,,2,3,2-5[8:1],,,,3b,,,,
{16}3-8[8:1],,,,2,,,,1,,2,3,2,,4,,
{16}5,,6,,7,,7,6,7-4[8:1],,,,2b,,,,
{16}8,,1,7,8,,6,,7,,8,,1-5[8:1],,,,
{4}8-4[8:1],1-6[8:1],8-3[8:1],,
{16}4,,5,3,4,,2,,3,,4,,5-1[8:1],,,,
{4}4-8[8:1],5-2[8:1],4-7[8:1],,
{16}7,,6,8,7,,1,,8,,7,,6-2[8:1],,,,
{4}7-3[8:1],6-1[8:1],7-4[8:1],,
{16}2,,3,1,2,,8,,1,,2,,3-7[8:1],,,,
{4}2-6[8:1],3-8[8:1],2-5[8:1],,
{16}6,,6,5,7,,7,,8,,8,7,1-5[8:1],,1,,
{8}8-4[8:1],8,1-6[8:1],1,8-3[8:1],8,,,
{16}2,,2,4,3,,3,,4,,4,6,5-1[8:1],,5,,
{8}4-8[8:1],4,5-2[8:1],5,4-7[8:1],4,,,
{16}1,,1,7,8,,8,,7,,7,5,6-2[8:1],,6,,
{8}7-3[8:1],7,6-1[8:1],6,7-4[8:1],7,,,
{16}8,,8,2,1,,1,,2,,2,4,3-7[8:1],,3,,
{8}2-6[8:1],2,3-8[8:1],3,2-5[4:1],2,5^8[4:1],,
{2}8^3[4:1],,
E
