&title=イアイア★ナイトオブデザイア
&artist=samfree
&wholebpm=162
&demo_seek=65.2
&demo_len=13.4
&lv_1=2
&lv_2=5
&lv_3=7
&lv_4=9+
&lv_5=11
&des_4=はっぴー
&des_5=はっぴー
&inote_1=(162.0){1},,
{1}1,,
{1}2,,
{1}1,
{1}1,
{1}8,
{1}8,
{1}7b,
{1}6-2[2:1],
{4},,,1,
{4},,,2,
{4},,,1,
{4},,,8,
{4},,,7,
{4},,,6,
{4},,,7,{1},
{1}1,
{1}1,
{1}2,
{1}2,
{1}3,
{1}3,
{1}4,
{1}4,
{2}6,6,
{1}6,
{2}7,7,
{1}7,
{2}8,8,
{1}8,
{2}1,1,
{1}1,
{1}2-7[2:1],,
{1}6-3[2:1],,
{2}1,1,
{1}2,
{2}1,1,
{2}8,8,
{1}7b,
{2}8,8,
{2}1,1,
{1}2h[1:1],,
{2}1,1,
{2}8,8,
{1}7h[1:1],,
{2}8,1,
{2}2,3,
{2}4,5,
{2}6,7,
{1}8-4[2:1],,
{2}1,1,
{1}1b,
{4},,,8,
{4},,,7,
{4},,,6,
{4},,,5,
{4},,,4,
{4},,,3,
{4},,,2,{1},
{4}1-4[2:1],,,,
E
&inote_2=(162.0){1},,
{1}3,
{1}1,
{1}2,
{1}7,
{1}8,
{1}2,
{1}8,,
{4},8-5[16:13],,,
{4},,,8/1,
{2},8,
{4}8,8,8,,
{4}8,8,8,,
{4}8,8,8,,
{2}7,6,
{2}2,3,
{2}8h[1:1],1h[2:1],{1},
{2}6,3,
{2}8,1,
{2},7/2,
{1}7,
{2}2,7,
{1}8/1,
{2}3,2-7[16:9],{1},
{1}2-7[16:9],
{2},4/5,
{1}2/7,
{1}2/7,
{2}8,1,
{2}8,1,
{1}1/8,
{1}1/8,
{4},1b/8b,,,
{2}1,8,{1},
{2}3/6,3/6,
{4},8b/1b,,,{1},
{1}2-7[16:13]/3-6[16:13],,
{4},,7,8,
{4},8,6,6,
{4}8,8b,,,
{2}6,3,
{4},,7,8,
{4},8,6,6,
{4}8,8b,,,
{2}6,3,
{1}1-4[16:9]/8-5[16:9],
{1}5,
{1}4,
{1}6,
{1}2,
{1}7-2[16:13],
{2},8-5[16:13],{1},,
{1}1b,,
{4}8,8,8,,
{4}8,8,8,,
{2}7,5,
{2}2,4,
{2}7/2,8,
{4},8b,,,
{16}8-5[16:13],{1},,
E
&inote_3=(162.0){1},,
{4}8h[4:1],,8,8,
{4}2h[4:1],,2,2,
{4}3h[4:1],,3,3,
{4}7h[4:1],,7,7,
{4}8h[4:1],,8,8,
{4}2h[4:1],,2,2,
{4}2/5,4,7/4,5,
{4}2/5,,7b,7b,
{4},7,8,1h[4:3],
{4},,,2b/7b,
{4}8/2,8,7,7,
{4}8,7,8,7,
{4}8/2,8,7,7,
{4}8,7,8,7,
{4}5,7,5,7,
{4}4,2,4,2,
{1}5^8[2:1],
{1}2-7[8:3],
{4}3/5,4,6/4,5,
{2}3/5,1^4[2:1]/8^5[2:1],{1},
{1}2h[2:1]/7h[2:1],
{2}3h[2:1],2,
{4}8,6,4/7,,
{1}5^2[2:1],
{4}3/4,5/6,3/4,5/6,
{1}2-7[8:3],
{4}5,6,5,6,
{1}6h[2:1],
{1}8^3[2:1],
{2}7h[4:3],2h[4:1],
{4}5,7,4,2,
{4}7,1,7,1-4[8:3]/8-5[8:3],{1},
{4}6/3,7b/2b,4/5,,
{4}4,3/6,5,3/6,
{1}3-6[8:3],
{4}3/6,4,5,6/3,
{4},2b/7b,5/4,6,
{4}5,4,3,,
{1}3-6[8:3],
{1}7-2[8:3],
{4}8b,,7,1,
{4}7,7,7,2,
{4}1,8b,,,
{4}7,6,2,3,
{4}8/7,,7,1,
{4}7,7,7,2,
{4}1,8b,,,
{4}7,6,2,3,
{1}7h[2:1]/2h[2:1],
{2}7,6,
{2}2,3,
{1}7^4[2:1],
{2}1,1-4[8:3],{1},
{2}5h[2:1],4,
{8}8-5[8:3],,,,,,,8/1,
{8},2/7,7b/2b,,,,,,
{4}4,4,3,3,
{4}5,5,6,6,
{4}8/2,8,7,7,
{4}2/8,7,8,7,
{4}5,7,5,7,
{4}4,2,4,2,
{4}7,2,8,1,
{4}8,1,8,8-5[1:1],{1},,
E
&inote_4=(162.0){1},,
{1}8h[2:1],
{1}2h[2:1],
{1}3h[2:1],
{1}7h[2:1],
{1}8h[2:1],
{1}2h[2:1],
{4}2/5,4,7/4,5,
{4}2/5,3h[2:1],7b,8b,
{2},7^2[2:1],
{4},,,2b/7b,
{4}8/3h[4:7],8,7,7,
{4}8,7,8,7,
{4}8/4h[4:7],8,7,7,
{4}8,7,8,7,
{4}5,7,5,7h[1:1],
{4}4,2,4,2,
{2}5^8[4:1],4^1[4:1],
{4}8h[4:1],2-7[4:1],,,
{4}2/6,4,7/3,5,
{4}2/6,7/3,3/6,1^4[2:1]/8^5[2:1],{1},
{1}2/7,
{4}3h[4:3],,2,8^5[4:1],
{4},,7/4,2/5^2[4:1],{1},
{4}3/4,6/5,3/4,6/5,
{1}2-7[4:1],
{4}5/3h[4:3],6,5,6,
{8}6h[8:5],,,,,8^3[8:3],
{4}6^3[4:1],{1},
{2}7h[4:3],2h[4:1],
{4}1/5,7/3,8/4,2/6,
{4}7/2h[2:1],1,7,1-4[2:1]/8-5[2:1],
{8},,,,,3/6,4,5,
{4},2b/7b,4/5,,
{4}1/3h[4:1],6,8/6h[4:1],3,
{1}3-6[4:1],
{4}6/3,4/6,3/5,6/3,
{4},2b/7b,4/5,6h[4:1],
{4}5h[4:1],4h[4:1],3,,
{1}3-6[4:1],
{4}7-2[2:1],6h[2:1],,,
{4}8b,,7/3h[4:3],1,
{4}7,7,7/4h[4:1],5,
{4}5/1-4[4:1],8b,,,
{4}7/2h[4:1],4,2/7h[4:1],5,
{4}8/7,,7/3h[4:3],1,
{4}7,7,7/4h[4:1],5,
{4}5/1-4[4:1],8b,,,
{4}7/2h[4:1],4,2/7h[4:1],5,
{1}2h[2:1]/7h[2:1],
{2}7,6,
{2}2,3,
{2}7^4[4:1],1^4[4:1],
{2},1-4[2:1],{1},
{2}5h[2:1],4h[2:1],
{8}8-5[4:1],,,,,,,1/8,
{8},7/2,4b/5b,,,,8h[4:1],,
{1}7-2[4:1],
{1}5-8[4:1],
{4}8/3h[4:3],8,7,7,
{4}8/4h[4:3],7,8,7,
{4}5,7,5,7h[1:1],
{4}4,2,4,2,
{4}7h[4:1],2h[4:1],8h[4:1],1h[2:1],
{4},8b,,8-5[1:1],{1},,
E
&inote_5=(162.0){1},
{8}2-5[4:1],7-4[4:1],,,,,,,
{16}8,,7,,6,,,,4h[16:3],,,3h[16:3],,,2,,
{16}1,,2,,3,,,,5h[16:3],,,6h[16:3],,,7,,
{16}8,,7,,6,,,,4h[16:3],,,3h[16:3],,,2,,
{16}1,,2,,3,,,,5h[16:3],,,6h[16:3],,,7,,
{16}8,,1,,2,,,,4h[16:3],,,5h[16:3],,,6,,
{16}1,,8,,7,,,,5h[16:3],,,4h[16:3],,,3,,
{16}4,,5,,6,,,,8h[16:3],,,1h[16:3],,,2,,
{8}5,4,3,,8,2,6,4b,
{8},,1-4[4:1],,,,2,2^7[4:1],
{4},,5-1[8:1],5b,
{16}8h[16:3],,,7,,,6,,1h[16:3],,,2,,,3,,
{2}8-4[8:1],2-6[8:1],
{16}7h[16:3],,,6,,,5,,2h[16:3],,,3,,,4,,
{2}1-5[8:1],7-3[8:1],
{16}1h[16:3],,,2,,,3,,8h[16:3],,,7,,,6,,
{4}6-1[8:1],4-8[8:1],5-1[8:1],,
{16}2h[16:3],,,3,,,4,,7h[16:3],,,6,,,5,,
{4}5-2[8:1],8-3[8:1],1-4[8:1],,
{8},8,7,6h[4:1],,2,3,4h[4:1],
{8},7,6,5h[4:1],,1,2,3h[4:1],
{8},8,7,6h[4:1],,2,3,4h[4:1],
{8},1,8-3[8:1],,2-5[8:1],,,,
{8},6,7,8h[4:1],,4,3,2h[4:1],
{8},5,6,7h[4:1],,3,2,1h[4:1],
{8},6,7,8h[4:1],,4,3,2h[4:1],
{8},8,1-5[8:1],,8-4[8:1],,,,
{8},2,4,6h[4:1],,7,5,3h[4:1],
{8},1,3,5h[4:1],,8,6,4h[4:1],
{8},2,4,6h[4:1],,7,5,3h[4:1],
{8},6,7^4[8:1],,1^6[8:1],,,,
{8},7,5,4h[4:1],,8,1,3h[4:1],
{8},1,7,6h[4:1],,2,3,5h[8:3],
{4},7^2[4:1],2^5[4:1],5b,
{8},,,,,8,7,6,
{8}5-1[8:1],,,,8h[8:3],,,1h[1786:671],
{714},,,,,,,,,,,,,,,,,,,,,,,,,,,,,,,,,,,,,,,,,,,,,,,,,,,,,,,,,,,,,,,,,,,,,,,,,,,,,,,,,,,,,,,,,,,,,,,,,,,,,,,,,,,,,,,,,,,,,,,,,,,,,,,,,,,,,,,,,,,,,,,,,,,,,,,,,,,,,,,,,,,,,,,,,,,,,,,,,,,
{4}2h[4:1],
{357}3h[4:1],,,,,,,,,,,,,,,,,,,,,,,,,,,,,,,,,,,,,,,,,,,,,,,,,,,,,,,,,,,,,,,,,,,,,,,,,,,,,,,,,,,,,,,,,
{4}4,
{2}7^4[4:1],3^8[4:1],
{8}7^2[4:1],,,,,1,2,3,
{8}4-8[8:1],,,,1h[8:3],,,8h[1668:625],
{833},,,,,,,,,,,,,,,,,,,,,,,,,,,,,,,,,,,,,,,,,,,,,,,,,,,,,,,,,,,,,,,,,,,,,,,,,,,,,,,,,,,,,,,,,,,,,,,,,,,,,,,,,,,,,,,,,,,,,,,,,,,,,,,,,,,,,,,,,,,,,,,,,,,,,,,,,,,,,,,,,,,,,,,,,,,,,,,,,,,,,,,,,,,,,,,,,,,,,,,,,,,,,,,,
{4}7h[4:1],
{835}6h[4:1],,,,,,,,,,,,,,,,,,,,,,,,,,,,,,,,,,,,,,,,,,,,,,,,,,,,,,,,,,,,,,,,,,,,,,,,,,,,,,,,,,,,,,,,,,,,,,,,,,,,,,,,,,,,,,,,,,,,,,,,,,,,,,,,,,,,,,,,,,,,,,,,,,,,,,,,,,,,,,,,,,,,,,,,,,,,,,,,,,,,,,,,,,,,,,,,,,,,,,,,,,,,,,,,,
{4}5,
{8}1h[4:1],,2h[4:1],,3h[4:1],,8,7h[4:1],
{8},6,5h[8:7],,,,,,
{8},8-4[8:1],8b,,1,7,3,5b,
{8},,8/7h[4:1],,5h[4:1],,3,1-5[8:1],
{8},8b,,,,2,1,8,
{2}7^4[8:1],2^5[8:1],
{8}8-4[8:1],,,,8,2,6,4b,
{8},,1/2h[4:1],,4h[4:1],,6,8-4[8:1],
{8},1b,,,,7,8,1,
{2}2^5[8:1],7^4[8:1],
{1000},2h[1000:749],,,,,,,,,,,,,,,,,,,,,,,,,,,,,,,,,,,,,,,,,,,,,,,,,,,,,,,,,,,,,,,,,,,,,,,,,,,,,,,,,,,,,,,,,,,,,,,,,,,,,,,,,,,,,,,,,,,,,,,,,,,,,,,,,,,,,,,,,,,,,,,,,,,,,,,,,,,,,,,,,,,,,,,,,,,,,,,,,,,,,,,,,,,,,,,,,,,,,,,,,,,,,,,,,,,,,,,,,,,,,,,,,,,,,,,,,,,,,,,,,,,,,,,,,,,,,,,,,,,,,,,,,,,,,,,,,,,,,,,,,,,,,,,,,,,,,,,,,,,,,,,,,,,,,,,,,,,,,,,,,,,,,,,,,,,,,,,,,,,,,,,,,,,,,,,,,,,,,,,,,,,,,,,,,,,,,,,,,,,,,,,,,,,,,,,,,,,,,,,,,,,,,,,,,,,,,,,,,,,,,,,,,,,,,,,,,,,,,,,,,,,,,,,,,,,,,,,,,,,,,,,,,,,,,,,,,,,,,,,,,,,,,,,,,,,,,,,,,,,,,,,,,,,,,,,,,,,,,,,,,,,,,,,,,,,,,,,,,,,,,,,,,,,,,,,,,,,,,,,,,,,,,,,,,,,,,,,,,,,,,,,,,,,,,,,,,,,,,,,,,,,,,,,,,,,,,,,,,,,,,,,,,,,,,,,,,,,,,,,,,,,,,,,,,,,,,,,,,,,,,,,,,,,,,,,,,,,,,,,,,,,,,,,,,,,,,,,,,,,,,,,,,,,,,,,,,,,,,,,,,,,,,,,,,,,,,,,,,,,,,,,,,,,,,7b,,,,,,,,,,,,,,,,,,,,,,,,,,,,,,,,,,,,,,,,,,,,,,,,,,,,,,,,,,,,,,,,,,,,,,,,,,,,,,,,,,,,,,,,,,,,,,,,,,,,,,,,,,,,,,,,,,,,,,,,,,,,,,,,,,,,,,,,,,,,,,,,,,,,,,,,,,,,,,,,,,,,,,,,,,,,,,,,,,,,,,,,,,,,,,,,,,,,,,,,,,,,,,,,,,,,,,,,,,,,,,,,,,,,,,,,,,,,,,,,,,,,,,,,,,
{2}2-6[8:5],8-4[8:5],
{2}5-1[8:5],7-4[8:5],
{2}8^3[8:5],8^5[8:5],
{2}4^1[8:5],8-4[8:5],
{1}1-5[2:1],
{2}1^4[4:1],8-4[4:1],
{8}2-6[2:1],,,,,,,7b,
{8},4b/8b,2b/6b,,,6-2[8:1],6b,,
{16}8h[16:3],,,7,,,8,,1h[16:3],,,2,,,1,,
{4}8-4[8:1],1,2^5[8:1],,
{16}1h[16:3],,,2,,,1,,8h[16:3],,,7,,,8,,
{4}1-5[8:1],8,7<3[8:1],,
{16}3h[16:3],,,4,,,5,,6h[16:3],,,5,,,8,,
{4}1-5[8:1],8-4[8:1],1^6[8:1],,
{16}5h[16:3],,,6,,,5,,3h[16:3],,,4,,,1,,
{4}8-4[8:1],1-5[8:1],8^3[8:1],4-1[1:1],{1},,
E
