&title=麻煩下一位
&artist=A-Lin
&wholebpm=132.0
&lv_1=2
&lv_2=4
&lv_3=6
&lv_4=8
&lv_5=10
&inote_1=(132.0){1},7,,
{1}8,,
{1}1,,
{1}2,,
{2}1,1,
{2}8,8,
{2}7,7,
{2}6,6,
{2}7,7,
{2}8,8,
{2}1,1,
{2}2,2b,{1},
{1}3,
{1}4,
{1}5,
{1}6,
{1}6,
{1}5,
{1}4,
{2}3,2,
{1}1h[2:1],,
{1}8h[2:1],,
{1}6-3[2:1],,
{1}2-7[2:1],,
{1}8b,
{4}7,7,,,
{4}6,6,,,
{4}7,7,,,
{4}8,8,,,
{1}1/8,
{1}8/1,
{2}1,2,
{2}1,1b,
{1}8,
{1}7,
{1}6,
{1}5,
{1}4h[4:3],,
{1}3h[4:3],,
{1}2-7[2:1],,
{1}6-3[2:1],,
{1}8/1,,
{1}8/1,
{2}1/8,1b,
{4}2,2,,,
{4}3,3,,,
{4}2,2,,,
{4}1,1,,,
{1}8/1,
{1}1/8,
{2}8,7,
{2}8,8b,
E
&inote_2=(132.0){1},2h[4:3],
{1}3h[4:3],
{1}4h[4:3],
{2}5,6,
{1}6h[4:3],
{1}5h[4:3],
{1}4h[4:3],
{4},,2/7,8/1,
{4},7,,7,
{4},2,,2,
{4},8,,8,
{4},7,3/6,3/6,
{4},2,,2,
{4},7,,7,
{4},1,,1,
{4},2,1/8,2/7,{1},
{4}7,7,,,
{400}6,,,,,,,,,,,,,,,,,,,,,,,,,,,,,,,,,,,,,,,,,,,,,,,,,,,,,,,,,,,,,,,,,,,,,,,,,,,,,,,,,,,,,,,,,,,,,,,,,,,6,,,,,,,,,,,,,,,,,,,,,,,,,,,,,,,,,,,,,,,,,,,,,,,,,,,,,,,,,,,,,,,,,,,,,,,,,,,,,,,,,,,,,,,,,,,,,,,,,,,,,,,,,,,,,,,,,,,,,,,,,,,,,,,,,,,,,,,,,,,,,,,,,,,,,,,,,,,,,,,,,,,,,,,,,,,,,,,,,,,,,,,,,,,,,,,,,,,,,,,,,,,,,,,,,,,,,,,,,,,,,,,,,,,,,,,,,,,,,,,,,,,,,,,,,,,,,,,,,,,,,,,,,,,,,,,,,,,,,,,,,,,,,,,,,,,,,,,,,,,,,
{4}5,5,,,
{4}4,4,3,2,
{4}1,1,,,
{400}8,,,,,,,,,,,,,,,,,,,,,,,,,,,,,,,,,,,,,,,,,,,,,,,,,,,,,,,,,,,,,,,,,,,,,,,,,,,,,,,,,,,,,,,,,,,,,,,,,,,8,,,,,,,,,,,,,,,,,,,,,,,,,,,,,,,,,,,,,,,,,,,,,,,,,,,,,,,,,,,,,,,,,,,,,,,,,,,,,,,,,,,,,,,,,,,,,,,,,,,,,,,,,,,,,,,,,,,,,,,,,,,,,,,,,,,,,,,,,,,,,,,,,,,,,,,,,,,,,,,,,,,,,,,,,,,,,,,,,,,,,,,,,,,,,,,,,,,,,,,,,,,,,,,,,,,,,,,,,,,,,,,,,,,,,,,,,,,,,,,,,,,,,,,,,,,,,,,,,,,,,,,,,,,,,,,,,,,,,,,,,,,,,,,,,,,,,,,,,,,,,
{4}7,7,,,
{4}8/1,8/1,2/1,2/1,
{1}3h[4:3],
{1}4h[4:3],
{2}5,6,
{2}7,8,
{1}8h[4:3],
{1}7h[4:3],
{4}6,6,,,
{4}3,3,,,
{8}8,,8,,1,1b,,,
{4}8,7,6,5,
{1}6-3[4:1],
{4}2,3,2,1,
{1}8-5[4:1],
{4}6/3,6/3,,,
{4}7/2,7/2,,,
{4}1/8,8/1,1/2,1/2,
{2}8h[2:1],7h[2:1],
{4},7,,6,
{4},7,,8,
{4},1,,2,
{4},,8,8,
{1}7h[4:3],
{1}6h[4:3],
{1}5h[4:3],
{1}4h[4:3],
{1}4-1[4:1],,
{1}8-5[4:1],,
{4}6,6,,,
{4}3,3,,,
{2}8,8,
{4}1/8,1/8,7/8,7b/8b,
{4}1,2,3,4,
{1}3-6[4:1],
{4}7,6,7,8,
{1}1-4[4:1],
{4}3/6,3/6,,,
{4}7/2,2/7,,,
{4}1/8,1/8,2/7,7/2,
{4}3h[4:3]/6h[4:3],,,,
E
&inote_3=(132.0){1},
{2}1,2,
{2}3,4,
{2}5,6,
{2}7,8,
{4}1,1,2,,
{4}3,3,4,,
{4}5,5,6,,
{4}7,2,8/1,8/1,
{4}8,7,6,5,
{4}4,3,2,1,
{4}1,2,3,4,
{4}5,6,8/7,2/1,
{4}8,5,2,7,
{4}4,1,6,3,
{4}3,6,1,4,
{4}7,8,2/1,8/7,{1},
{4}1/8,7,6,7,
{4}1/8,2,3,2,
{4}1/8,7,6,5,
{4}4,3,2,1,
{4}1/8,3,5,7,
{4}8/1,6,4,2,
{4}8/1,2,3,4,
{4}5,6,7/8,1/8,
{2}7h[2:1],8,
{2}3h[2:1],4,
{4}6h[4:1],7h[4:1],8,,
{4}4h[4:1],3h[4:1],2,,
{1}1-6[4:1],
{1}5-2[4:1],
{4}2,6,7,3,
{1}4h[8:3]/5h[8:3],
{8},3/6,3/6,,8/1,1b/8b,,,
{4}1/2,8/7,1/2,7/8,
{1}3/2^7[4:1],
{4}5/6,3/4,5/6,4/3,
{1}7/6^3[4:1],
{8}5,,6,,7,7,7,,
{8}4,,3,,2,2,2,,
{1}3-7[4:1],
{4}3/7,6/2,1/8,2b/7b,
{2}6,3,
{4}4,5,4,5,
{2}1/8,7,
{4}2,6,3,5,
{4}4h[4:7],5,,6,
{4},7,,8,
{4}8h[4:7],1,,2,
{4},3,,4,
{1}4h[4:3],
{1}6h[4:3],
{1}8h[4:3],
{1}2h[4:3],
{1}3h[4:3]/4h[4:3],
{1}2h[4:3]/5h[294:221],
{2}6/1,1/6,
{4}7/8,6/1,5/2,3b/4b,
{4}1/2,8/7,2/1,7/8,
{1}3/2^7[4:1],
{4}5/6,3/4,5/6,3/4,
{1}7/6^3[4:1],
{8}5,,6,,7,7,7,,
{8}4,,3,,2,2,2,,
{1}3-7[4:1],
{8}5-1[4:1],,,,,,2b,2b,
E
&inote_4=(132.0){1},1h[4:3],
{1}7h[4:3],
{1}5h[4:3],
{1}3h[4:3],
{4}1h[4:3],7-3[2:1],,,
{4}5h[4:3],3^8[2:1],,,
{4}1h[4:3],8-5[2:1],,,
{4}6h[4:1],7,8b/1b,2b/1b,
{4}7/1h[4:3],8,7,8,
{4}2/8h[4:3],1,2,1,
{4}6/4h[4:3],5,6,5,
{4}3/5h[4:1],4,1/7,2/8,
{8}3/4h[4:1],2,2b,,2/8h[4:1],,6,,
{4}7/1h[4:1],8,2/8h[4:1],1,
{4}7,6/7,8,8/1,
{4}2,3/2,1b/8b,7b/8b,{1},
{8}4h[8:7],,3,3,,2,,,
{8}5h[8:7],,6,7,,6,,,
{8}1h[8:7],,8,8,,7,,,
{4}6h[8:7],5,4,3,
{8}2h[8:5],,1,1,,8,,7,
{8}6h[8:5],,5,4,,5,,7,
{4}8/1,1,5/4,6,
{4}1/8,2/3,4/5,6/7,
{8}8h[2:1]/1h[2:1],,,,,2h[4:1],,3h[4:1],
{8},4h[8:5],,5h[8:3],,,,3,
{8}2,1,8,7,6,5,,7/6,
{8},8/1,,3/2,,1,1b,,
{8}5h[2:1]/4h[2:1],,,,,6,7,8/1,
{8},1/5,,7/3,,,,,
{8}4/3h[2:1],,7,7,,2/1^6[8:3],,,
{8},5-1[8:3],,,,,,,
{8},6/8,8b/7b,,8/1,7b/2b,,,
{8}8/2,1,8/2,7,6,5,4,5h[4:1],
{8},6,7,8h[8:3],,,,,
{8}7/1,8,7/1,2,3,4,5,4h[4:1],
{8},5,6,5h[8:3],,,,,
{4}7/1h[4:1],3,2/8h[4:1],6,
{4}8/6h[4:1],4,1/3h[4:1],5,
{8}6h[4:1],,7,7h[2:1],,8,,6h[8:3],
{8},,,2h[4:1],,,2b/7b,,
{4}5h[4:3],4^1[2000:1001],,,
{4}7h[4:3],8^3[2:1],,,
{4}4h[4:3],5^8[2:1],,,
{4}2h[4:3],1^6[2:1],,,
{4},4^1[2000:1001],,,
{4},8^3[2:1],,,
{4},5^8[2:1],,,
{4},1^6[2:1],,,
{1}7h[4:3],
{1}8h[4:3],
{1}3h[4:3],
{1}2h[4:3],
{1}5h[4:3],
{1}6h[4:3],
{4}8/3h[4:3],8,8,8,
{4}3/7,6/2,8/2,7/1,
{8}7/1,8,1/7,2,3,4,5,4h[4:1],
{8},3,2,1h[8:3],,8,8b,,
{8}8/2,1,2/8,7,6,5,4,5h[4:1],
{8},4,3,4h[8:3],,,,,
{4}2/8h[4:1],6,7/1h[4:1],3,
{4}1/3h[4:1],5,8/6h[4:1],4,
{8}3h[4:1],,1,1h[4:1],,,8,8h[4:1],
{8},,7,7h[4:1],,,8b/1b,2b/7b,
E
&inote_5=
(132.0){1},
{2}1h[2:1],3h[2:1],
{2}5h[2:1],7h[2:1],
{2}6h[2:1],4h[2:1],
{2}2h[2:1],8h[2:1],
{1}7^2[2:1],
{1}3^6[2:1],
{1}7^2[2:1],
{4}3,4,1/7,8/2,
{8}6/8h[8:1],7h[8:1],1,,1/3h[8:1],2h[8:1],4,,
{8}5,6/7,8,1,2/3,1,8,,
{8}7/5h[8:1],6h[8:1],4,,2/4h[8:1],3h[8:1],5,,
{4}6-1[8:1],3-8[8:1],4-1[8:1],,
{8}6/8h[8:1],7h[8:1],1,,1/3h[8:1],2h[8:1],4,,
{8}5,6/7,8,1,2/3,1/8,6/7,,
{8}3/1h[8:1],2h[8:1],8,,6/8h[8:1],7h[8:1],1,,
{8}2/3,4,5,6,8b/7b,1,1b/2b,8,{1},
{8}7/5h[4:1],,6h[8:1],4h[4:1],3,2h[4:1],,1,
{8}8h[4:1],,6h[8:1],7h[4:1],8,1h[4:1],,2,
{4}3/4,5,8/1,7,
{4}3,5/4,6/3,8/1,
{8}2/4h[4:1],,3h[8:1],5h[4:1],6,7h[4:1],,8,
{8}8/1h[4:1],,3h[8:1],2h[4:1],1,8h[4:1],,7,
{8}6-1[4:1],,,,8^3[8:1],7,,,
{16}6/4,,5,,4/6,,,,7,8,,8,1,,2,,
{8}1b/7h[8:1],8,1/6,,8/2h[8:1],1,3/8,,
{8}5/3h[8:1],4,2/5,,4/6h[8:1],5,4/7,,
{8}8,7,6,5,4,2h[4:1],,1,
{16}8,,7h[4:1],,,,6,,5,,4,3,4,,5,,
{8}1b/7h[8:1],8,1/6,8,8/2h[8:1],1,3/8,1,
{8}5/3h[8:1],4,2/5,4,4/6h[8:1],5,4/7,,
{8}1h[2:1],,8,7h[4:1],,5,4,3h[4:1],
{8}2,1,8,7-4[8:1],,3-8[8:1],,,
{8},4/6,5b/3b,,1/2,1b/8b,,,
{8}6/4h[4:1],5,6,8/1,3,5/4^1[8:1],6,,
{8},1/8^5[8:1],2,,,,,,
{8}4/2h[4:1],3,4,5/4,7,2/1^6[8:1],3,,
{8},2/3^6[8:1],1,,,,7-4[4:1],,
{4},3-8[4:1],,6-1[4:1],
{4},2-5[4:1],,6^1[8:1],
{4}2^5[8:1],6^1[8:1],2^5[8:1],,
{8}7,8,1,2,4^1[8:1]/5^8[8:1],,,,
{8}7h[4:1],,5h[2:1],,3b,,3,2,
{8}1h[4:1],,2h[2:1],,3,3,3,,
{8}2h[4:1],,4h[2:1],,6b,,6,7,
{8}8h[4:1],,7h[2:1],,6,6,6-1[2:1],,
{4}5h[4:3],,,2-5[2:1],
{4}3h[4:3],,,6-1[2:1],
{4},,,3-7[4:1],
{4},6-2[8:1],4-8[8:1],,
{8}4/3h[2:1],5,6,7,6h[8:3],5,4,3h[8:1],
{8},4,5,6h[8:3],,,,,
{8}1/8h[2:1],2,3,4,5h[8:3],6,7,8h[8:1],
{8},1,2,1h[8:3],,,,,
{4}5/6,4/5,,,
{4}4/5,4/3,,,
{2}1/8,6/7,
{16}4/5,,,,3/2,,,,8/1,,7,6,5,4,3,2,
{8}7/1h[4:1],8,7,8/1,2,4/3^8[8:1],5,,
{8},6/7^2[8:1],5,,,8,8b,,
{8}4/2h[4:1],3,4,5/4,7,2/1^6[8:1],3,,
{8},2/3^6[8:1],1,,,,7-4[4:1],,
{4},3-8[4:1],,6-1[4:1],
{4},2-5[4:1],,6^1[8:1],
{8}2^5[8:1],,6^1[8:1],,2^5[8:1],,,7h[4:1],
{8},,1,1h[4:1],,,7/6,1/8,
E
