&title=air's gravity
&artist=zts
&first=0
&des=
&wholebpm=137
&demo_seek=49
&demo_len=13
&des_4=ニャイン
&des_5=譜面-100号
&des_6=某S氏
&lv_1=4
&lv_2=7
&lv_3=8+
&lv_4=11
&lv_5=13
&lv_6=13+
&inote_1=(137.0){1},,
{1}3,
{1}4,
{1}5,
{1}6,
{1}7,
{1}8,
{1}1h[4:3],,
{1}1b,,
{2}2,2,
{2}3,3,
{2}2,2,
{2}1,1,
{4}8,8,7,,
{4}6,6,5,,
{4}6,6,7,,
{4}8,8,1,,
{4}8,8,7,7,
{4}6,6,5,5,
{4}6,6,7,7,
{4}8,8,1,1,
{2}8,7,
{2}6,5,
{1}4-1[2:1],,
{4}1,2,1,,
{4}8,7,8,,
{4}1,1,2,,
{4}1,1,8,8,
{1}7h[4:3],
{1}6h[4:3],
{4}7,7,7,,
{4}8,8,1,1b,
{4}8,8,7,7,
{4}6,6,5,5,
{4}6,6,7,7,
{4}8,8,1,1,
{1}2-7[2:1],,
{1}8-5[2:1],,
{1}1b,
E
&inote_2=(137.0){1},,
{1}2h[2:1],
{1}3h[2:1],
{1}4h[2:1],
{1}5h[2:1],
{2}4,4,
{2}3,3,
{1}2h[4:3],
{1}1h[4:3],
{1}1b,,
{4}1,1,2,,
{4}1,1,8,,
{4}7,7,6,,
{4}5,5,4,,
{4}5,6,7,,
{4}5,4,3,,
{4}4,5,6,,
{4}4,3,2,,
{4}1,2,3,4,
{4}5,6,7,8,
{4}8,7,6,5,
{4}4,3,2,1,
{4}8,7/8,1,2,
{4}3,3/4,2,1,
{1}8h[4:5],
{4},,8,8b/1b,
{4}8,7,8,1/8,
{4}2,3,2,1/8,
{4}7,6,5,4,
{4}5,6,7,8b,
{4}7,7,5,5,
{4}3,3,1,1,
{4}2,4,6,1,
{4}7,5,3,1/8,
{1}2-5[4:1],
{1}6-1[4:1],
{1}8-5[4:1],
{4}1,3,5,6,
{4}5,4,3,1/2,
{4}3,4,5,6/7,
{4}5,3,1,7,
{4}8,8,1,1,
{1}8b/1b,
E
&inote_3=(137.0){1},,
{1}6h[4:3],
{1}8h[4:3],
{1}1h[4:3],
{1000},3h[4:3],,,,,,,,,,,,,,,,,,,,,,,,,,,,,,,,,,,,,,,,,,,,,,,,,,,,,,,,,,,,,,,,,,,,,,,,,,,,,,,,,,,,,,,,,,,,,,,,,,,,,,,,,,,,,,,,,,,,,,,,,,,,,,,,,,,,,,,,,,,,,,,,,,,,,,,,,,,,,,,,,,,,,,,,,,,,,,,,,,,,,,,,,,,,,,,,,,,,,,,,,,,,,,,,,,,,,,,,,,,,,,,,,,,,,,,,,,,,,,,,,,,,,,,,,,,,,,,,,,,,,,,,,,,,,,,,,,,,,,,,,,,,,,,,,,,,,,,,,,,,,,,,,,,,,,,,,,,,,,,,,,,,,,,,,,,,,,,,,,,,,,,,,,,,,,,,,,,,,,,,,,,,,,,,,,,,,,,,,,,,,,,,,,,,,,,,,,,,,,,,,,,,,,,,,,,,,,,,,,,,,,,,,,,,,,,,,,,,,,,,,,,,,,,,,,,,,,,,,,,,,,,,,,,,,,,,,,,,,,,,,,,,,,,,,,,,,,,,,,,,,,,,,,,,,,,,,,,,,,,,,,,,,,,,,,,,,,,,,,,,,,,,,,,,,,,,,,,,,,,,,,,,,,,,,,,,,,,,,,,,,,,,,,,,,,,,,,,,,,,,,,,,,,,,,,,,,,,,,,,,,,,,,,,,,,,,,,,,,,,,,,,,,,,,,,,,,,,,,,,,,,,,,,,,,,,,,,,,,,,,,,,,,,,,,,,,,,,,,,,,,,,,,,,,,,,,,,,,,,,,,,,,,,,,,,,,,,,,,,,,,,,,,,,,,,,,,,,,,,,,,,,,,,,,,,,,,,,,,,,,,,,,,,,,,,,,,,,,,,,,,,,,,,,,,,,,,,,,,,,,,,,,,,,,,,,,,,,,,,,,,,,,,,,,,,,,,,,,,,,,,,,,,,,,,,,,,,,,,,,,,,,,,,,,,,,,,,,,,,,,,,,,,,,,,,,,,,,,,,,,,,,,,,,,,,,,,,,,,,,,,,,,,,,,,,,,,,,,,,,,,,,,,,,,,,,,,,,,,,,,,,,,,,,,,,,,,,,,,,,
{1}7h[4:3],
{1}5h[4:3],
{1}4h[1666:1249],
{1}2h[1666:1249],
{1}7h[2:3]/2h[2:3],
{4},,,3b/7b,
{4}1,1,3,3,
{4}2,2,4,4,
{4}6,6,8,8,
{4}7,7,5,5,
{4}1h[4:1],2,8h[4:1],7,
{4}1h[4:1],2,8h[4:1],7,
{4}4h[4:1],3,5h[4:1],6,
{4}4h[4:1],3,5h[4:1],6,
{8}2h[4:1],,3,,2/3,3/2,3/2,,
{8}7h[4:1],,6,,6/7,7/6,7/6,,
{8}1h[4:1],,3,,3/1,1/3,3/1,,
{8}8h[4:1],,6,,6/8,8/6,8/6,,
{8}6h[4:1],,2,,3,3,4,4,
{8}5h[4:1],,6,,7,7,8,8,
{2}1-5[4:1],8-4[4:1],
{4}2h[4:1],1h[4:1],8h[4:1],7b,
{8}1,2,1,,8,7,8,,
{8}1,2,3,4,5,6,7,,
{8}5,4,3,,5,6,7,,
{8}6,5,4,3,2,1,8b,,
{8}1,1,2,,1,1,8,,
{8}7,7,6,6,5,5,6,,
{8}7,7,8,,7,6,6,,
{8}7,7,8,8,1,1,2,,
{8}1,1,8,8,7,6,5,,
{8}1,1,2,2,1,8,7,,
{8}1/8,2,3,,1/2,8,7,,
{8}1,2,3,4,5,6,7b,,
{8}6h[4:1],,4h[4:1],,2,2,2,,
{8}3h[4:1],,5h[4:1],,7,7,7,,
{8}1,1,7,7,3,3,5,5,
{8}4,4,6,6,2,2,8,8,
{1}1b,
E
&inote_4=(137.0){1},,
{1}2h[4:7],
{1}4h[4:7],
{1}5h[4:7],
{1}6h[4:7],
{1}8h[4:7],
{1}1h[4:7],
{1}2h[4:7],
{1}3h[4:3],
{1}3h[4:7]/5h[4:7],,
{8}3,2,1,,3,4,5,,
{8}8,1,2,,8,7,6,,
{8}1,3,5,,3,1,7,,
{8}8,2,4,,2,8,6,,
{8}3,5,7,1,8,6,4,2,
{8}3,5,7,1,2,8,6,4,
{8}3,5,7,1,7,5,3,1,
{8}8,2,4,6,8,7,5,3,
{16}2,,2,3h[16:3],,,,,2,,2,1h[16:3],,,,,
{16}1,,1,2h[16:3],,,,,4,,4,5h[16:3],,,,,
{16}7,,7,6h[16:3],,,,,7,,7,8h[16:3],,,,,
{16}8,,8,7h[16:3],,,,,5,,5,4h[16:3],,,,,
{16}4,,4,3h[16:3],,,4,,4,,5,6h[16:3],,,5,,
{16}4,,3,2h[16:3],,,1,,8,,8,7h[16:3],,,8,,
{1}1h[1:1],
{4}3-8[8:1],6-1[8:1],4-8[8:1],1b,
{16}7/8,,1,,3,,5,,4/3,,2,2,,,1,1,
{16}2,,3,,4,,5,,6,,7,8,,7,6,,
{8}5,4,3,2,1,8,8/7,,
{8}1,2,3,4,5,6,7b,,
{16}1/8,,7,,5,,3,,5/4,,6,6,,,7,7,
{16}8,,7,,6,,5,,4,,3,2,,3,4,,
{16}5,,6,,7,,8,,1,,2,2,3,,2,,
{8}8,7,6,5,4,3,8b/1b,,
{16}2/1h[4:1],,4,,5h[4:1],,6,,7,,8,1h[16:3],,,2,,
{16}8/7h[4:1],,5,,4h[4:1],,3,,2,,1,8,,1,2,,
{8}2-6[8:1],2,,,8-4[8:1],8,,,
{8}1,8,7,6,5,,2b/6b,,
{2}2h[4:1]/8-3[8:1],7h[4:1]/1-6[8:1],
{2}4h[4:1]/8^3[8:1],5h[4:1]/1^6[8:1],
{8}7,6,5,4,3,2,1,,
{8}2,4,6,8,7,5,3^6[2:1]/8^3[2:1],,,,,,,
E
&inote_5=(137.0){1},,
{8}1,8,7h[8:3],2,1,8h[8:3],,,
{8}7,8,1h[8:3],6,7,8h[8:3],,,
{8}3,2,1h[8:3],4,3,2h[8:3],,,
{8}5,6,7h[8:3],4,5,6h[8:3],,,
{8}2,3,5h[8:3],7,6,4h[8:3],,,
{8}7,5,3h[8:3],2,4,6h[8:3],,,
{8}3,6,7h[8:3],6,3,2h[8:3],,,
{8}3,2,1h[8:3],6,7,8h[8:3],,,
{1}1h[4:7],
{16},,,,,,,,,,,,6b,8b,2b,,
{16}1,,1,8,1,,1,,2,,2,1,2,1,2,,
{16}8,,8,1,8,,8,,7,,7,8,7,8,1,1,
{16}8,,8,7,8,,8,,7,,8,7,1,7,8,,
{16}1,,1,2,1,,1,,2,,3,2,4,3,5,4,
{16}6,,6,5,6,,6,,4,,4,5,4,5,4,,
{16}3,,3,4,3,,3,,5,,5,4,5,4,6,6,
{16}5,,5,6,5,,5,,4,,5,4,6,4,5,,
{16}4,,4,3,4,,4,,5-1[4:1],,5,5,,,,,
{16}8,,8,2,1,,1,,2,,2,1,8,1,8,,
{16}1,,1,7,8,,8,,7,,7,1,8,8,2,,
{16}3,,3,2,1,,1,,8,,1,8,7,8,1,,
{16}6,,6,7,8,,8,,1,,7/3,,1/5,,,,
{16}4,,4,3,5,,5,,6,,6,5,4,5,4,,
{16}5,,5,6,4,,4,,3,,3,4,5,4,5,6,
{16}7,,7,8,1,,1,2,3,,3,4,5,,5,6,
{16}7,8,1,2,3,4,5,6,7,,6b/2b,,4b/8b,,,,
{16}1,,8,8,8,,7,,8,,1,1,1,,2,,
{16}1,,1,1,8,,8,8,7,,7,7,6,,6,,
{16}7,,8,8,8,,1,,2,,1,1,1,,8,,
{8}7,1,2,8,4,,2/6,,
{16}8,,7,7,7,,6,,1,,2,2,2,,3,,
{16}2,,3,2,1,,2,1,8,,1,8,7,8,7,6,
{16}7,,6,6,6,,7,,2,,3,3,3,,2,,
{8}1,6,7,4,5,,3b/7b,,
{16}1,,7,7,7,,5,,1,,3,3,3,,5,,
{16}1,,2,2,8,,7,7,1,,2,2,1,1,8,8,
{16}7,,3,3,3,,5,,2,,6,6,6,,4,,
{8}1,5,8,4,5,,3/7,,
{16}8,,1,2,3,,4,,1,,8,7,6,,5,,
{16}8,,1,2,1,,8,7,8,,1,2,1,8,7,8,
{16}1,,2,3,4,,5,,8,,7,6,5,4,3,2,
{8}1b/5b,7/3,4b/8b,2/6,7b/3b,,1h[4:1],,
{1}5,
E
&inote_6=(137.0){1},,
{8}1,8,7h[8:3],6,5,4h[8:3],,,
{8}3,2,1h[8:3],8,7,6h[8:3],,,
{8}5,4,3h[8:3],5,6,7h[8:3],,,
{8}8,1,2h[8:3],3,4,5h[8:3],,,
{8}4,3,2^5[8:3],1,8,7h[4:1],,,
{8}6,5,4^7[8:3],3,2,1h[4:1],,,
{8}1,2,3^8[8:3],4,5,6h[4:1],,,
{8}7,8,1^6[8:3],2,3,4h[4:1],,,
{1}4>5[4:5]/5<4[4:5],
{16},,,,,,,,,,,,1b,8b,2b,,
{16}3,,3,4,3,,3,,4h[8:1],,5,4,3,4,5,,
{16}6,,6,5,6,,6,,5h[8:1],,4,5,6,5,4,4,
{16}3,,3,4,3,,3,,4h[8:1],,5,4,3,4,5,,
{16}6,,6,5,6,,6,,5h[8:1],,4,5,6,7,8,1,
{16}2,,2,1,2,,2,,1h[8:1],,8,1,2,1,8,,
{16}7,,7,8,7,,7,,8h[8:1],,1,8,7,8,1,1,
{16}2,,2,1,2,,2,,1h[8:1],,8,1,2,1,8,,
{16}7,,7,8,7,,7,,1w5[8:1],,1,1,,,,,
{16}3,,3,4,2/5,,3,,3,,3,4,2/5,4,3,,
{16}6,,6,5,4/6,,6,,6,,6,5,4/7,5,6,5,
{16}7,,7,8,1/7,,7,,7,,7,8,1/6,8,7,,
{16}2,,2,1,2/8,,2,,2,,3/7,,1/5,,,,
{16}7,,7,8,1/6,,5,,6,,6,5,4/7,3,4,,
{16}2,,2,1,3/8,,4,,3,,3,4,2/5,4,3,4,
{16}3/5,,6,5,4/6,,3,4,2/5,,7,5,4/8,,2/6,,
{16}3,3,5,5,7,7,1,1,3,,2b/6b,,4b/8b,,,,
{16}1-5[8:1],,7,1,8,,8,,8-4[8:1],,2,8,1,,1,,
{16}3-5[8:1],,3,3,7-4[8:1],,7,7,1,,1,2,3/4,5,6,7,
{16}4/8^5[8:1],,4,3,2,,8,,3/8^3[8:1],,3,4,5,6,7,8,
{8}1/5,4/8,2-5[8:1]/6-1[8:1],3/7,2/6,,4/8,,
{16}8-4[8:1],,2,8,1,,1,,1-5[8:1],,7,1,8,,8,,
{16}6-4[8:1],,6,6,2-5[8:1],,2,2,8,,8,7,5/6,4,3,2,
{16}5/1^4[8:1],,5,6,7,,1,,6/1^6[8:1],,6,5,4,3,2,1,
{8}4/8,1/5,3-8[8:1]/7-4[8:1],2/6,3/7,,1b/5b,,
{16}8/7-4[8:1],,8,7,1,,1,,1/2-5[8:1],,1,2,8-6[8:1],,8,,
{16}8-2[8:1],,4,4,8-4[8:1],,4,4,8,,1,2,3/4,5,6,7,
{16}1/8^3[8:1],,7,8,6,,6,,6/5h[2:1],,4,3,2,1,8,7,
{8}6,1/2,3-7[8:1]/4-8[8:1],7/8,3/4,,2/6,,
{16}1/2^5[8:1],,1,2,8,,8,,8/7^4[8:1],,8,7,1^4[8:1],,1,,
{16}1^6[8:1],,5,5,1-5[8:1],,5,5,1,,8,7,5/6,4,3,2,
{16}1/5,,2/6,,3/7,,4/8<4[4:1],,1/5,,3,2,1,8,7,6,
{8}1b/5b,3/7,4b/8b,2/6,3b>7[8:1]/7b<3[8:1],,,,
{1}2/6,
E
