&title=Turn around
&artist=Clean Tears
&wholebpm=156
&demo_seek=20.9
&demo_len=13.1
&lv_1=3
&lv_2=6
&lv_3=8
&lv_4=13
&lv_5=13+
&des_4=ニャイン
&des_5=はっぴー
&inote_1=(156.0){1},,
{1}3,
{1}2,
{1}1,
{1}8,
{2}7,7,
{2}6,6,
{2}5,5,
{2}4,4,
{1}3h[4:13],,,,
{4},2,,2,
{4},2,,2,
{4},1,,1,
{4},1,,1,
{4},8,,8,
{4},8,,8,
{4},7,,7,
{4},7,,7,
{4},6,,6,
{4},5,,5,
{4},4,,4,
{4},3,,2,
{4},1,,8,
{4},7,,8,
{4},1,,2-7[2:1],{1},
{4}8,,,7,
{1}7,
{2}7,6,
{2}5,4,
{2}3,4,
{2}5,4,
{2}3,2,
{4}1,,8,8b,
{4},1,,8,
{4},7,,6,
{4},5,,4,
{4},3,,2,
{4},1,,8,
{4},2,,7,
{4},3,,6,
{4},4,,5b,
{1}5,
{1}5,
{1}6,
{1}6,
{2}7,7,
{2}7,7,
{4}8,8,8,8/1,
E
&inote_2=(156.0){1},,
{2}1,1,
{2}2,2,
{2}3,3,
{2}4,4,
{4}3,3,2,2,
{4}1,1,8,8,
{4}7,7,6,6,
{4}5,5,4,4-8[2:1],{1},,,
{4},,8,8b,
{4},2,2,2,
{4},3,3,3,
{4},2,2,2,
{4},1,1,1,
{4},8,8,8,
{4},7,7,7,
{4},8,8,8,
{4},1,1,1,
{4}2,2,3,3,
{4}2,2,1,1,
{4}8,8,7,7,
{4}6,6,5,5,
{4}7,7,8,8,
{4}2,2,3,3,
{4}2,1/2,8,8/7,
{4}1,1/2,3/2,4/3,
{1}2h[4:3],
{1}1h[4:3],
{4},8,8,8,
{4},7,7,7,
{1}8h[4:3],
{1}1h[4:3],
{4},2,2,2,
{4},3,3,3,
{1}5h[4:3],
{1}6h[4:3],
{4},5,5,5,
{4},4,4,4,
{1}3h[4:3],
{1}2h[4:3],
{4},1,1,1,
{4},8/1,,8b/1b,
{4},7,6,7,
{4},1,8,1,
{4},2,3,2,
{4},4,5,4,
{4}3,3,2,2,
{4}1,1,8,8,
{4}7,7,6-3[4:1],,,
E
&inote_3=(156.0){1},,
{4}1,1,2,2,
{4}3,3,4,4,
{4}5,5,6,6,
{4}7,7,8,8,
{4}1,1,2,2,
{4}1,1,8,8,
{4}7,7,6,6,
{4}5,5,4,4,
{1}3h[4:15],,,
{4},,,1b,
{8}8,7,6,,4,5,6,,
{8}8,1,2,,4,3,2,,
{8}8,7,6,,8,1,2,,
{8}3,4,5,,4,3,2,,
{8}8,8,7,7,6,6,6,,
{8}8,8,1,1,2,2,2,,
{8}1,8,7,,7,8,1,,
{8}2,3,4,,4,3,2,,
{4}8,8/7,7,7/6,
{4}6,6/5,5,5/4,
{4}5,5/6,6,6/7,
{4}7,7/8,8,8/1,
{1}2h[1:1],
{1}3h[1:1],
{8}2,1,8,,7,8,1,,
{4}2h[4:3],,,3b,
{8}8h[8:3],,,7h[8:3],,,6,6h[8:7],{1},
{1}5-1[4:1],
{1}3-7[4:1],
{8}8h[8:3],,,1h[8:3],,,2,2h[2000:1751],{1},
{1}1-5[4:1],
{1}7-3[4:1],
{8}2h[8:3],,,1h[8:3],,,8,8h[8:7],{1},
{1}7-2[4:1],
{1}3-6[4:1],
{8}5h[8:3],,,4h[8:3],,,3,3h[8:7],{1},
{1}2-7[4:1],
{4}5-1[4:1],,,8b,
{8}7,7,6,6,5,5,5,,
{8}7,7,8,8,1,1,1,,
{8}2,2,3,3,4,4,4,,
{8}2,2,1,1,8,8,8,,
{4}1,4,7,2,
{4}5,8,3,6,
{8}1,1,8,8,7,,8/1,
E
&inote_4=(156.0){1},5-1[2:1],
{4}2,2,3,3,
{4}4,4,5,5,
{4}6,6,7,7,
{4}8,8,1,1,
{8}8,
{763}8,,,,,,,,,,,,,,,,,,,,,,,,,,,,,,,,,,,,,,,,,,,,,,,
{69}7,,,,,,,,,,,,,
{16}7,6,,,8,1,,,1,2,
{16},,3,4,,,4,5,,,3,2,,,2,1,
{16},,8,7,,,7,6,,,8,1,,,1,2,
{16},,2,3,,,3,4,,,4,5,,,5,6,
{16},,5,4,,,4,3,,,3,2,,,2,1,
{16},,1,8,,,8,7,,,7,6,,,6,5,
{16},,5,4,,,4,3,,,3,2,,,,,
{4}1h[8:5],,,1b,
{8}7,6,5/8,,1,2,3/8,,
{8}8,7,6/1,,2,3,1/4,,
{8}8,7,5/6,,8,1,2/3,,
{8}1,8,1/7,,8,1,2/8,,
{16}7,,6,5h[16:3],,,,,8,,1,2h[16:3],,,,,
{16}3,,4,5h[16:3],,,,,3,,2,1h[16:3],,,,,
{16}8,,7,6h[16:3],,,7,,8,,1,2h[16:3],,,3,,
{16}8,,7,6h[16:3],,,5,,4,,3,2h[16:3],,,1b,,
{8}1,3,5,7,1,3,5/6,7,
{8}6,4,2,8,6,4,1/2,8,
{8}1,3,5,7,1,3,6/5,7,
{8}6,4,2,8,6,4,1/2,8,
{16}8,,7,6h[16:3],,,5,,8,,1,2h[16:3],,,3,,
{16}1,,8,7h[16:3],,,6,,4,,3,2h[16:3],,,1,,
{16}8,,7,6h[16:3],,,7,,8,,1,2h[16:3],,,1,,
{8}7h[2:1],,,,8-5[8:1],8,,,
{16}4,3,,3,4,,5,6,,6,7,,8,,,,
{16}7,6,,6,5,,5,4,,4,3,,2,,1,,
{8}8h[8:3],7,6,5h[8:3],4,3,2,1h[2:1],
{8}2,3,4,5h[2:1],6,7,8,1,
{16}8,7,,7,8,,1,2,,2,3,,4,,,,
{16}3,2,,2,1,,1,8,,8,7,,6,,5,,
{8}4h[8:3],3,2,1h[8:3],8,7-3[8:1],7,2-6[8:1],
{8}2,8-4[8:1],8,,,1,1b,,
{16}4,3,,3,4,,5,6,,6,7,,8,,,,
{16}7,6,,6,5,,5,4,,4,3,,2,,1,,
{8}8h[8:3],7,6,5h[8:3],4,3,2,1h[2:1],
{8}2,3,4,5h[2:1],6,7,8,1,
{16}8,7,,7,8,,1,2,,2,3,,4,,,,
{16}3,2,,2,1,,1,8,,8,7,,6,,5,,
{8}4-8[8:1],4,,1-6[8:1],1,7-4[8:1],7,8-4[8:1],
{8}8,1-4[8:1],1,,,8,8b,,
{8}8,7,1/6,2,3,4,8/5,7,
{8}6,5,1/4,2,3,4,1/5,8,
{8}7,6,8/5,1,2,3,4/1,8,
{8}7,8,1/2,3,4,3,1/2,8,
{8}7,7,6,6,5,5,4,4,
{8}7,7,8,8,1,1,2,2,
{8}8,7,6,5,4-1[8:1],,,,
E
&inote_5=(156.0){1},,
{16}6,,,6,7,,,6,8,,,6,1,,,6,
{16}2,,,6,3,,,6,4,,,6,5,,,6,
{16}3,,,3,2,,,3,1,,,3,8,,,3,
{16}7,,,3,6,,,3,5,,,3,4b,,,3,
{16},3h[16:3],,,5,,,4,,7h[16:3],,,5,,,6,
{972},,,,,,,,,,,,,,,,,,,,,,,,,,,,,,,,,,,,,,,,,,,,,,,,,,,,,,,,,,,1h[243:46],,,,,,,,,,,,,,,,,,,,,,,,,,,,,,,,,,,,,,,,,,,,,,,,,,,,,,,,,,,,,,,,,,,,,,,,,,,,,,,,,,,,,,,,,,,,,,,,,,,,,,,,,,,,,,,,,,,,,,,,,,,,,,,,,,,,,,,,,,,,,,,,,,,,,,,,,,,,,,,,,,,,,,,,,,,,,,,,,,,,,,,,
{16}7,,,8,,3h[16:3],,,1,,,2,
{16},4h[16:3],,,2,,,3,,8h[16:3],,,2,,,1,
{16},6h[16:3],,,8,,,7,,4h[16:3],,,2,,,3,
{16},7h[16:3],,,5,,,6,,6,,,
{12}5,
{995}4,,,,,,,,,,,,,,,,,,,,,,,,,,,,,,,,,,,,,,,,,,,,,,,,,,,,,,,,,,,,,,,,,,,,,,,,,,,,,,,,,,,
{12}3,
{12}2,
{995}1,,,,,,,,,,,,,,,,,,,,,,,,,,,,,,,,,,,,,,,,,,,,,,,,,,,,,,,,,,,,,,,,,,,,,,,,,,,,,,,,,,,
{12}8,7,
{995}8,,,,,,,,,,,,,,,,,,,,,,,,,,,,,,,,,,,,,,,,,,,,,,,,,,,,,,,,,,,,,,,,,,,,,,,,,,,,,,,,,,,
{12}1,2,
{995}3,,,,,,,,,,,,,,,,,,,,,,,,,,,,,,,,,,,,,,,,,,,,,,,,,,,,,,,,,,,,,,,,,,,,,,,,,,,,,,,,,,,
{12}4,5,
{995}4,,,,,,,,,,,,,,,,,,,,,,,,,,,,,,,,,,,,,,,,,,,,,,,,,,,,,,,,,,,,,,,,,,,,,,,,,,,,,,,,,,,
{12}3,
{12}4,
{995}5,,,,,,,,,,,,,,,,,,,,,,,,,,,,,,,,,,,,,,,,,,,,,,,,,,,,,,,,,,,,,,,,,,,,,,,,,,,,,,,,,,,
{12}6,7,
{995}8,,,,,,,,,,,,,,,,,,,,,,,,,,,,,,,,,,,,,,,,,,,,,,,,,,,,,,,,,,,,,,,,,,,,,,,,,,,,,,,,,,,
{12}1,2,
{995}3,,,,,,,,,,,,,,,,,,,,,,,,,,,,,,,,,,,,,,,,,,,,,,,,,,,,,,,,,,,,,,,,,,,,,,,,,,,,,,,,,,,
{12}4,5,
{995}6,,,,,,,,,,,,,,,,,,,,,,,,,,,,,,,,,,,,,,,,,,,,,,,,,,,,,,,,,,,,,,,,,,,,,,,,,,,,,,,,,,,
{48}7,,,,
{16}8,8,,,4b,,,,5-1[8:1],,,,7b,,,,
{16}7,6,,6,5,,5,4,,3,,3,,2,,,
{8}2-6[8:1],6-1[8:1],,,6-2[8:1],2-5[8:1],,,
{16}2,3,,3,4,,4,5,,6,,6,,7,,,
{8}7-3[8:1],3-8[8:1],,,3-7[8:1],7-4[8:1],,,
{16}7,6,,6,5,,5,4,,3,,3,,2,,,
{8}2-6[8:1],6^1[8:1],,,6-2[8:1],2^5[8:1],,,
{16}2,3,,3,4,,4,5,,6,,6,,7,,,
{8}7-3[8:1],3^8[8:1],,,3-7[8:1],7^4[8:1],,,
{16}7,6,,6,5,,5,4,,3,,3,,2,,,
{8}2^7[8:1],6^1[8:1],,,6^3[8:1],2^5[8:1],,,
{16}2,3,,3,4,,4,5,,6,,6,,7,,,
{8}7^2[8:1],3^8[8:1],,,3^6[8:1],7^4[8:1],,,
{16}7,6,,6,5,,5,4,,3,,3,,2,,,
{8}1^4[8:1],5^2[8:1],,,5^8[8:1],1^6[8:1],,,
{16}4,3,,3,2,,2,1,,2,,2,,8,,8,
{983}1,,,,,,,,,,,,,,,,,,,,,,,,,,,,,,,,,,,,,,,,,
{625}2,,,,,,,,,,,,,,,,,,,,,,,,,,
{983}3,,,,,,,,,,,,,,,,,,,,,,,,,,,,,,,,,,,,,,,,,4,,,,,,,,,,,,,,,,,,,,,,,,,,,,,,,,,,,,,,,,,
{625}5,,,,,,,,,,,,,,,,,,,,,,,,,,
{983}6,,,,,,,,,,,,,,,,,,,,,,,,,,,,,,,,,,,,,,,,,
{8}7,7,7h[4:1],,1b,,
{16},7,,6,7,,7,8,,2,,3,2,,2,1,
{16},6,,5,6,,6,7,,3,,4,3,,3,2,
{16},7,,5,4,,4,3,,2,,4,5,,5,6,
{16},6,,8,1,,1,2,,3,,1,8,,8,7,
{16},5,,1,2,,2,3,,4,,8,7,,7,6,
{16},8,,4,3,,3,2,,1,,5,6,,6,7,
{16},1,,3,5,,5,7,,8,,6,4,,4,2,
{16},6,,8,2,,2,4,,3,,1,7,,7,5b,
{16},3h[16:3],,,5,,,4/6,,7h[16:3],,,5,,,6/4,
{972},,,,,,,,,,,,,,,,,,,,,,,,,,,,,,,,,,,,,,,,,,,,,,,,,,,,,,,,,,,1h[243:46],,,,,,,,,,,,,,,,,,,,,,,,,,,,,,,,,,,,,,,,,,,,,,,,,,,,,,,,,,,,,,,,,,,,,,,,,,,,,,,,,,,,,,,,,,,,,,,,,,,,,,,,,,,,,,,,,,,,,,,,,,,,,,,,,,,,,,,,,,,,,,,,,,,,,,,,,,,,,,,,,,,,,,,,,,,,,,,,,,,,,,,,
{16}7,,,6/8,,3h[16:3],,,1,,,8/2,
{16},4h[16:3],,,2,,,3/1,,8h[16:3],,,2,,,1/3,
{16},6h[16:3],,,8,,,7/1,,4h[16:3],,,2,,,1/3,
{16},1/3h[16:3],,,5,,,4/6,,1/7h[16:3],,,5,,,4/6,
{16},3/1h[16:3],,,7,,,6/8,,5/3h[16:3],,,1,,,2/8,
{16},6/4h[16:3],,,2,,,3/1,,6/8h[16:3],,,2,,,1/3,
{16},4/6h[16:3],,,8,,,7/1,,4h[16:3],,,8b,,,,
{4}8-5[4:1],5-2[4:1],2-7[4:1],7-4[4:1],
{4}4-1[4:1],1-6[4:1],6-3[4:1],3^8[4:1],
{4}8-4[4:1],4^7[4:1],7-3[4:1],3-6[4:1],
{4}6^1[4:1],1-5[4:1],5b,2b,
{8}7-4[4:1],7,4-1[4:1],4,1^6[4:1],1,6^3[4:1],6,
{8}3-8[4:1],3,8^3[4:1],8,3^6[4:1],3,6-1[4:1],6,
{8}1^6[4:1],1,6^3[4:1],6,3-6[4:1],3-8[8:1],,,,
E
