&title=Starlight Disco
&artist=loos feat. Meramipop
&wholebpm=128
&demo_seek=50
&demo_len=18
&lv_1=2
&lv_2=4
&lv_3=7+
&lv_4=11+
&lv_5=12
&lv_6=12+
&des_4=譜面-100号
&des_5=はっぴー
&des_6=mai-Star
&inote_1=(128.0){1},,,
{1}1,,
{1}2,,
{1}1,,
{1}8,
{4},,,1b,
{4},,,2,
{4},,,2,
{4},,,3,
{4},,,3,
{4},,,2,
{4},,,2,
{4},,,1,{1},
{2}8,7,
{1}7,
{2}8,1,
{1}1,
{2}2,3,
{1}3,
{2}2,1,
{1}1,
{1}8h[2:1],
{1}7h[2:1],
{2}8,8,
{2}1,1,
{1}2h[2:1],
{1}3h[2:1],
{2}2,1,
{2}8,7,
{1}6-3[2:1],,
{1}4-1[2:1],,
{1}8h[1:1],,
{2}1,2,
{2}1,
{4}8-5[2:1],,,,
E
&inote_2=(128.0){1},,,
{4},1,,1,
{4},2,,2,
{4},3,,3,
{4},4,,4,
{4},5,,5,
{4},6,,6,
{4},7,,7,
{4},8,1,8b,
{4},1,,2,
{4},3,,4,
{4},8,,7,
{4},6,,5,
{4},3,,3,
{4},5,,5,
{4},7,,7,
{4},1,,1b/8b,
{4},2h[2:1],,,
{4},1h[2:1],,,
{4},8h[2:1],,,
{4},7h[2:1],,,
{1}8-5[4:1],
{1}1-4[4:1],
{1}2-7[4:1],
{4}6-3[4:1],,,2b,
{4},1,,3,
{4},2,,4,
{4},5,,7,
{4},6,,1/8,
{4},1,,1,
{4},2,,2,
{4},3,,2,
{4},1,,8,
{4},1-5[4:3],,,{1},
{4},8-5[4:3],,,{1},
{4},4h[2:1],,,
{4},3h[2:1],,,
{4},2,,1,
{4},8,,7,
{1}8-4[4:3],,
E
&inote_3=(128.0){1},,,
{2}1,1,
{2}3,3,
{2}5,7,
{2}8,7,
{2}6,5,
{2}4,3,
{8}2,,,,1,,,8h[8:5],
{4},,,8b,
{4}1,1,2,2,
{4}1,8,1-4[8:1],,
{4}8,8,7,7,
{4}8,1,8-5[8:1],,
{4}1,2,3,4,
{4}5,6,7-3[8:1],,
{4}8,7,6,5,
{4}4,3/4,6/7,2b/1b,
{8}8,,6,,4,,5,5,
{8},7,7,,8-5[8:1],,,,
{8}1,,3,,5,,4,4,
{8},2,2,,1-4[8:1],,,,
{8}8,,8,,7,,6,5,
{8},5,6,,1-4[8:1],,,,
{8}1,,1,,2,,3,4,
{8},4,3,,5,6,8b/7b,,
{16}8,,,7,,,6h[834:313],,,,,,5,,,,
{16}8,,,1,,,2h[8:3],,,,,,3,,,,
{2}7^4[8:1],1^4[8:1],
{2}1^6[8:1],1^4[8:1],
{16}8,,,7,,,6h[8:3],,,,,,5,,,,
{16}4,,,3,,,2h[8:3],,,,,,1,,,,
{2}2^5[8:1],8^5[8:1],
{2}8^3[8:1],8^5[8:1],
{16}1,,,8,,,7h[8:11],,,,,,8,,,,
{4}1,2,3,4b,
{16}3,,,2,,,1h[8:11],,,,,,2,,,,
{4}3,4,5,6b,
{16}5,,,4,,,3h[8:11],,,,,,4,,,,
{4}5,6,7,8b,
{16}1,,,3,,,1,,1,,,7,,,5,,
{16}5,,,4,,,3/2,,,,
{8}1^4[8:7]/8-5[8:7],{1},,
E
&inote_4=(128.0){1},,,
{2}5h[4:1],5h[4:1],
{2}4h[4:1],4h[4:1],
{4}6h[4:1],5,6h[4:1],5,
{4}3h[4:1],4,3h[4:1],4,
{4}7/6h[4:1],5,5/6h[4:1],7,
{4}2/3h[4:1],4,4/3h[4:1],2,
{8}7/6h[4:1],,5,,2/3h[4:1],,4,4-8[8:3],
{4},,,5b,
{8}2h[8:1],,8h[8:1],,7h[8:1],,1h[8:1],5h[4:1],
{4},3h[8:1],4h[8:1],6,
{8}7h[8:1],,1h[8:1],,2h[8:1],,8h[8:1],4h[4:1],
{4},6h[8:1],5h[8:1],3,
{8}2h[8:1],,8h[8:1],,7h[8:1],,1h[8:1],5h[8:1],
{8},5,3,3,4,4,6,,
{8}7h[8:1],,1h[8:1],,2h[8:1],,8h[8:1],4h[8:1],
{8},4,6,6,5,5,3b/4b,,
{8}2,8,8,7,7,1,1,5h[4:1],
{8},3,3h[8:1],4,4h[8:1],6,6/5,,
{8}7,1,1,2,2,8,8,4h[4:1],
{8},6,6h[8:1],5,5h[8:1],3,3/4,,
{8}2h[8:1],8,8h[8:1],7,7h[8:1],1,1h[8:1],5h[4:1],
{8},3,3h[8:1],4,4h[8:1],6,6/5,,
{8}7h[8:3],1h[8:3],,,8h[4:1],2h[8:5],,1b,
{8},1,1h[4:1],8,8h[4:1],7,7^2[8:1],,
{4},3^6[8:1],,1^4[8:1],
{8},,5^8[8:1],,,,,8,
{8}8-5[8:1],,,1,1-4[8:1],,,6,
{8}6-2[8:1],,,3,3-7[8:1],,,,
{16}1/6,,,7/2,,,3-6[8:1]/8-5[8:1],,,,,,,,,,
{16}8/3,,,7/2,,,1-4[8:1]/6-3[8:1],,,,,,,,6/7-3[8:1],,
{8}7/6h[16:3],,,3/2-6[8:1],2/3h[16:3],,,5/8-4[8:1],
{8}8/5h[16:3],,,4/1-5[8:1],1/4h[16:3],,,,
{16}2-6[8:1],,,1,,,8^3[8:1],,,,,,8,,,,
{8}8^5[8:1],,1,,1^4[8:1],1,,,
{16}7-3[8:1],,,8,,,1^6[8:1],,,,,,1,,,,
{8}1>6[8:1],,8,,8^5[8:1],8,,,
{16}2-6[8:1],,,1,,,8^3[8:1],,,,,,8,,,,
{8}8^5[8:1],,1,,1^4[8:1],1,,,
{16}8-5[8:1],,,7h[16:3],,,,,1-4[8:1],,,2h[16:3],,,,,
{16}8h[16:3],,,6h[16:3],,,1h[8:13],,,,
{8}3^6[8:5],,,{1},,
E
&inote_5=(128.0){1},,,
{4}7/5,6,2/4,3,
{4}7/5,6,2/4^7[8:1],3,
{4}7/5,6,4/2,3,
{8}7/5,,6,,2/4^7[8:1],4,,,
{4}5/7,6,2/4,3,
{4}7/5,6,4/2^7[8:1],,
{8}7/5,,6,,2/4,,1^4[4:1]/8^5[4:1],1/8,{1},
{8}8h[8:1],7,1h[8:1],2,8h[8:1],7^2[8:1],7,,
{8}8h[8:1],7,1h[8:1],2,8h[8:1],7,1h[8:1],2,
{8}4h[8:1],3,5h[8:1],6,4h[8:1],3^6[8:1],4,,
{8}4h[8:1],3,5h[8:1],6,4h[8:1],3,5/6,,
{8}8h[8:1],6,6h[8:1],4,4h[8:1],2,2h[8:1],1,
{8}1h[8:1],3,3h[8:1],5,5h[8:1],7,7h[8:1],8,
{8}8h[8:1],6,4h[8:1],2,8h[8:1],6,4h[8:1],2,
{8}1h[8:1],3,5h[8:1],7,1h[8:1],3,1b,,
{8}8^5[8:1],8-4[8:1],,,8h[8:1],7,1,2h[4:1],
{8},1,1h[8:1],2,2-6[8:1],6-3[8:1],,,
{8}1^4[8:1],1-5[8:1],,,1h[8:1],2,8,7h[4:1],
{8},8,8h[8:1],7,7-3[8:1],3-6[8:1],,,
{8}8h[8:1],7h[8:1],6h[8:1],5h[8:1],4h[8:1],3h[8:1],2h[8:1],1h[4:1],
{8},3h[8:1],5h[8:1],
{859}7h[8:1],,,,,,,,,,,,,,,,,,,,,,,,,,,,,,,,,,,,,,,,,,,,,,,,,,,,,,,,,,,,,,,,,,,,,,,,,,,,,,,,,,,,,,,,,,,,,,,,,,,,,,,,,,
{703}8^3[5000:633],,,,,,,,,,,,,,,,,,,,,,,,,,,,,,,,,,,,,,,,,,,,,,,,,,,,,,,,,,,,,,,,,,,,,,,,,,,,,,,,,,,,,,,,,
{8}3-6[8:1],,,
{8}5h[8:1],7h[8:1],1h[8:1],3h[8:1],4h[8:1],2h[8:1],8h[8:1],6h[8:3],
{4},,4/3,8h[4:1],
{16}1h[16:3],,,2-5[16:5],,,2h[8:3],,,,,,,,1h[8:1],,
{16}8h[16:3],,,7-4[16:5],,,7h[8:3],,,,,,,,1^6[8:1]/4^1[8:1],,
{8}1/4,,,5^8[8:1]/8^3[8:1],5/8,,,5-1[8:1],
{8}1^4[2:1],,,6h[8:3],,,,3h[8:1],
{16}2h[16:3],,,1^6[16:5],,,1h[8:3],,,,,,,,6h[8:1],,
{16}7h[16:3],,,8^3[16:5],,,8h[8:3],,,,,,,,,,
{2}2-7[8:1]/3^8[8:1],6^1[8:1]/7-2[8:1],
{2}2-7[8:1]/3^8[8:1],6^1[8:1]/7-2[8:1],
{16}8h[16:3],,,1h[16:3],,,2h[16:3],,,3h[16:3],,,4h[8:1],,5,,
{16}1h[16:3],,,8h[16:3],,,7h[16:3],,,6h[16:3],,,5h[8:1],,4,,
{16}3h[16:3],,,2h[16:3],,,1h[16:3],,,8h[16:3],,,7h[8:1],,6,,
{16}6h[16:3],,,7h[16:3],,,8h[16:3],,,1h[16:3],,,2h[8:1],,3,,
{16}6,,6,7,,7,8,,8,1,,1,8,1,8,,
{16}2,,2,3,,3,4,,4,5,,5,4,5,4^7[4:1],,
{8}4,,,5^2[4:1],5,,,7^2[4:1],
{8}7h[16:3],,,7,,1^4[8:5]/8^5[8:5],,,,,,,,
E
&inote_6=(128.0){1},,,
{4}1-3[8:1]/7-5[8:1],1v4[8:1]/7v4[8:1],,,
{16}1s5[8:1],,,,,,,,4/6,,4,6,3,7,2,8,
{4}1>5[4:1],5<1[4:1],1-5[8:1],,
{16}8-4[8:1],,,,,,,,6/3,,3/6,,7,8,,2,
{8}1p5[8:1],2,3,4,5p1[10000:1247],6,7,8,
{16}8q4[8:1],,7,,6,,5,,4/5,,3,6,2,7,1,8,
{8}3-8[8:1],,6-1[8:1],,,,1/8,2/7>6[8:5],
{4},,,1b,
{8}3h[8:1],4h[8:1],3h[8:1],4h[8:1],2h[2:1],1,8,7,
{8}6h[8:1],5h[8:1],6h[8:1],5h[8:1],7h[4:1],8,1,,
{8}7h[8:1],8h[8:1],7h[8:1],8h[8:1],6h[2:1],5,4,3,
{8}2h[8:1],1h[8:1],2h[8:1],1h[8:1],3h[8:1],4,6/1,,
{8}2-4[8:1],1-5[8:1],2,1,8-4[8:1],7-5[8:1],8,7,
{8}4^7[8:1],3,2,1,8^3[8:1],7,6,,
{8}7-5[8:1],8-4[8:1],7,8,1-5[8:1],2-4[8:1],1,2,
{8}5^2[8:1],6,7,8,1^6[8:1],2,3b,,
{8}1-5[8:1],1,7-3[8:1],7,2-6[8:1],2,8-4[8:1],8,
{8}3-8[8:1],3,4-7[8:1],4,5-2[8:1],5,6,,
{8}8-4[8:1],8,2-6[8:1],2,7-3[8:1],7,1-5[8:1],1,
{8}6-1[8:1],6,5-2[8:1],5,4-7[8:1],4,3,,
{8}4-1[8:1],4-7[8:1],4,4,8-3[8:1],8-5[8:1],8,8,
{8}1-4[8:1],1-6[8:1],1,1,5-2[8:1],5,5,,
{16}1-6[8:1]/8-3[8:1],,8/1,,,,,,2h[8:1]/1h[8:1],,,6h[8:1]/5h[8:1],,,4h[8:1]/3h[8:1],,
{8},8/7,7/2,,8-4[8:1],6/2,1b,,
{16}2-6[8:1],,,2/7>3[16:5],,,7h[8:3],,,,,,,,7,,
{16}7-3[8:1],,,7/2<6[16:5],,,2h[8:3],,,,,,,,3v1[8:1],,
{16}1>5[8:1],,8,8,,,6v8[8:1],,8<4[8:1],,1,1,,,2,,
{8}7,7q2[4:1],,2<4[4:1],,,,2,
{16}2^7[8:1],,,2/6<3[16:5],,,6h[8:3],,,,,,,,7,,
{16}7^2[8:1],,,7/3>6[16:5],,,3h[8:3],,,,,,,,1q5[8:1]/5q1[8:1],,
{8}1/5,,,1^6[8:1]/5^2[8:1],1/5,,,2q6[8:1]/6q2[8:1],
{8}2/6,,,2^7[8:1]/6^3[8:1],,2/6,,2/6,
{16}7/3,,1,1,,3,3,,5,5,,7,7,,3/7,,
{16}2/6,,8,8,,6,6,,4,4,,2,2,,8/1,,
{16}7/2,,1,1h[16:3],,3,3h[16:3],,5,5h[16:3],,7,7h[8:1],,1,,
{16}2/7,,8,8h[16:3],,6,6h[16:3],,4,4h[16:3],,2,2h[8:1],,8,,
{16}7/2,,2-6[16:1],2,,7-3[16:1],7,,1,1,,8,8,,1/8,,
{16}7/2,,7-3[16:1],7,,2-6[16:1],2,,8,8,,1,1,,1^6[8:1],,
{8}6p5[8:1],,,8^3[8:1],3q4[8:1],,,1^4[16:1],
{8}5^8[16:1],,,4p8[4:1]/8p4[4:1],,4<1[8:7]/8>5[8:7],{1},,
E
