&title=Sprintrances
&artist=Taishi
&wholebpm=178
&demo_seek=54.8
&demo_len=20.2
&lv_1=3
&lv_2=6
&lv_3=8+
&lv_4=11
&lv_5=13
&des_4=ニャイン
&des_5=mai-Star
&inote_1=(178.0){1},,,,,
{1}1,
{1}8,
{1}7,
{1}6,
{1}7,
{1}7,
{1}8,
{1}8,
{1}1,
{1}1,
{1}2,
{1}2,
{1}1h[4:3],,
{1}8,
{1}7,
{1}8h[4:3],,
{1}1,
{1}2,
{1}3-6[2:1],,,,
{1}7-2[2:1],,,,
{1}2,
{1}1,
{1}8,
{1}7,
{1}8,
{1}1,
{1}2,
{1}1b,
{4}8,8,,,
{4}7,7,,,
{4}8,8,,,
{4}1,1,,,
{4}2,2,,,
{4}3,3,,,
{4}2,2,1,1,
{4}8,8,7,7,
{4}8,8,,,
{4}1,1,,,
{893}2,,,,,,,,,,,,,,,,,,,,,,,,,,,,,,,,,,,,,,,,,,,,,,,,,,,,,,,,,,,,,,,,,,,,,,,,,,,,,,,,,,,,,,,,,,,,,,,,,,,,,,,,,,,,,,,,,,,,,,,,,,,,,,,,,,,,,,,,,,,,,,,,,,,,,,,,,,,,,,,,,,,,,,,,,,,,,,,,,,,,,,,,,,,,,,,,,,,,,,,,,,,,,,,,,,,,,,,,,,,,,,2,,,,,,,,,,,,,,,,,,,,,,,,,,,,,,,,,,,,,,,,,,,,,,,,,,,,,,,,,,,,,,,,,,,,,,,,,,,,,,,,,,,,,,,,,,,,,,,,,,,,,,,,,,,,,,,,,,,,,,,,,,,,,,,,,,,,,,,,,,,,,,,,,,,,,,,,,,,,,,,,,,,,,,,,,,,,,,,,,,,,,,,,,,,,,,,,,,,,,,,,,,,,,,,,,,,,,,,,,,,,,,,,,,,,,,,,,,,,,,,,,,,,,,,,,,,,,,,,,,,,,,,,,,,,,,,,,,,,,,,,,,,,,,,,,,,,,,,,,,,,,,,,,,,,,,,,,,,,,,,,,,,,,,,,,,,,,,,,,,,,,,,,,,,,,,,,,,,,,,,,,,,,,,,,,,,,,,,,,,,,,,,,,,,,,,,,,,,,,,,,,,,,,,,,,,,,,,,,,,,,,,,,,,,,,,,,,,,,,,,,,,,,,,,,,,,,,,,,,,,,,,,,,,,,,,,,,,,,,,,,,,,,,,,,,,,,,,,,,,,,,,,,,,,,,,,,,,,,,,,,,,,,,,,,,,,,,,,,,,,,,,,,,,,,,,,,,,,,,,,,,,,,,,,,,,,,,,,,,,,,,,,,,,,,,,,,,,,,,,,,,,,,,,,,,,,,,,,,,,,,,,,,,,,,,,,,,,,,,,,,,,,,,,,,,,,,,,,,,,,,,,,,,,,,,,,
{4}3,3,,,
{4}2,2,,,
{4}1,1,,,
{4}8-5[2:1],,,,
E
&inote_2=(178.0){1},
{4},2,,2,
{4},1,,1,
{4},8,,8,
{4},7,,7,
{4},8,8,8,
{4},1,1,1,
{4},8,1,8,
{1}1-5[2:1],
{4},6,,5,
{4},3,,4,
{4},2,,3,
{4},5,5,4,
{4},7,,6,
{4},4,,5,
{4},2,,3,
{4},1,1,2,
{4},8,,8,
{4},6,,6,
{4},7,,7,
{4},8,8,8,
{4},1,,1,
{4},3,,3,
{4},2,,2,
{4},1,1,1,
{1}8h[1:2],,,
{4},2,2,2,
{1}8h[4:7],,,
{4},8/7,8/7,8/7,
{4},6,,5,
{4},4-8[4:5],,,{1},,
{4},1,,2,
{4},3,,4,
{4}3,3,2,2,
{4}1,1,8,8b,
{4},1,1,2,
{4},1,1,8,
{1}7h[4:3],
{1}6h[4:3],
{4},7,7,8,
{4},1,1,2,
{1}3h[4:3],
{1}4h[4:3],
{4},3,2,2,
{4},3,4,4,
{1}5h[4:3],
{1}6h[4:3],
{4},5,4,3,
{4},4,5,6,
{8}4,,3,,2,,1,1h[8:3],
{2},
{8}8h[8:3],,,,
E
&inote_3=(178.0){1},3,
{1}4,
{1}5,
{1}6,
{4}7,7,6,6,
{4}5,5,4,4,
{4}3,3,2,2,
{1}1b,
{8}8,,7h[8:3],,,6,6,,
{8}8,,1h[8:3],,,2,2,,
{8}8,,7h[8:3],,,6,6,,
{8}4,,2h[8:3],,,3,3,,
{8}4,,5h[8:3],,,6,6,,
{8}5,,4h[8:3],,,3,3,,
{8}4,,5h[8:3],,,6,6,,
{8}4,,2h[8:3],,,3,3,,
{8}2/3,,1,1,,8,8,,
{8}6/7,,5,5,,4,4,,
{8}5/6,,7,7,,8,8,,
{8}1/2,,3,3,,4,4,,
{8}1/8,,7,7,,5,5,,
{8}2/3,,4,4,,6,6,,
{8}1/8,,7,7,,5,5,,
{8}2/3,,4,4,,6,6,,
{1}8h[1:2],,,
{4}2,3/4,3/4,4/3,
{4},2,,2,
{4},1,,1,
{4},8,,8,
{4}7,6/7,7/8,1/8,
{8}8h[4:1],,6,,,5,5,,
{8}6h[4:1],,7,,,1,1,,
{8}2h[4:1],,4,,,5,5,,
{8}4h[4:1],,2,,,1,1,,
{1}8-4[4:1],
{1}1-5[4:1],
{4}6,5,4,3,
{4}4,6,8,2b,
{8}2,,1,,1/8,,2,2,
{8},3,,5,,7h[8:3],,,
{8}6,,
{993}4,,,,,,,,,,,,,,,,,,,,,,,,,,,,,,,,,,,,,,,,,,,,,,,,,,,,,,,,,,,,,,,,,,,,,,,,,,,,,,,,,,,,,,,,,,,,,,,,,,,,,,,,,,,,,,,,,,,,,,,,,,,,
{4}4,
{993}2,,,,,,,,,,,,,,,,,,,,,,,,,,,,,,,,,,,,,,,,,,,,,,,,,,,,,,,,,,,,,,,,,,,,,,,,,,,,,,,,,,,,,,,,,,,,,,,,,,,,,,,,,,,,,,,,,,,,,,,,,,,,
{4}2,1,
{993}3,,,,,,,,,,,,,,,,,,,,,,,,,,,,,,,,,,,,,,,,,,,,,,,,,,,,,,,,,,,,,,,,,,,,,,,,,,,,,,,,,,,,,,,,,,,,,,,,,,,,,,,,,,,,,,,,,,,,,,,,,,,,
{4}3,
{993}5,,,,,,,,,,,,,,,,,,,,,,,,,,,,,,,,,,,,,,,,,,,,,,,,,,,,,,,,,,,,,,,,,,,,,,,,,,,,,,,,,,,,,,,,,,,,,,,,,,,,,,,,,,,,,,,,,,,,,,,,,,,,
{4}5,
{8}6,,
{8}5,,4/3,,5,5,
{8},7,,1,,3h[8:3],,,
{1}4-8[4:1],
{1}7-3[4:1],
{8}3,,2,,1/2,,3,3,
{8},5,,7,,1h[8:3],,,
{8}2,,
{993}8,,,,,,,,,,,,,,,,,,,,,,,,,,,,,,,,,,,,,,,,,,,,,,,,,,,,,,,,,,,,,,,,,,,,,,,,,,,,,,,,,,,,,,,,,,,,,,,,,,,,,,,,,,,,,,,,,,,,,,,,,,,,
{4}8,
{993}6,,,,,,,,,,,,,,,,,,,,,,,,,,,,,,,,,,,,,,,,,,,,,,,,,,,,,,,,,,,,,,,,,,,,,,,,,,,,,,,,,,,,,,,,,,,,,,,,,,,,,,,,,,,,,,,,,,,,,,,,,,,,
{4}6,7,
{993}1,,,,,,,,,,,,,,,,,,,,,,,,,,,,,,,,,,,,,,,,,,,,,,,,,,,,,,,,,,,,,,,,,,,,,,,,,,,,,,,,,,,,,,,,,,,,,,,,,,,,,,,,,,,,,,,,,,,,,,,,,,,,
{4}1,
{993}3,,,,,,,,,,,,,,,,,,,,,,,,,,,,,,,,,,,,,,,,,,,,,,,,,,,,,,,,,,,,,,,,,,,,,,,,,,,,,,,,,,,,,,,,,,,,,,,,,,,,,,,,,,,,,,,,,,,,,,,,,,,,
{4}3,
{8}2,,
{8}1,,1/8,,2,2,
{8},4,,6,,8h[8:3],,,
{8}1-5[4:1],,,,,,,6h[8:5],
{8},,,,3,,,8/1,
E
&inote_4=(178.0){1},,,,,
{4}3h[1:1],,,4,
{4}5h[1:1],,,4,
{4}1h[1:1],,,8-5[2:1],
{8},,,,,,,1b,
{8}1h[4:3],,8,,,,7,7h[8:7],
{4},6,,5,
{8}5/3h[4:3],,2,,,,8,8h[8:5],
{8},,7,,,,
{625}1/5,,,,,,,,,,,,,,,,,,,,,,,,,,,,,,,,,,,,,,,,,,,,,,,,,,,,,,,,,,,,,,,,,,,,,,,,,,,,,,,,,,,,,,,,,,,,,,,,,,,,,,,,,,,,,,,,,,,,,,,,,,,,,,,,,,,,,,,,,,,,,,,,,,,,,,,,,,,,
{8}2h[625:469],,
{8}3,,,,5,5h[8:7],
{4},6,,8,
{8}2/1h[4:3],,3,,,,4,4h[8:7],
{4},5,,6,
{8}8/1h[8:3],,2,2,,3,4,,
{8}4/5h[8:3],,7,7,,8,1,,
{8}1/2h[8:3],,3,3,,4,5,,
{8}6/5h[8:3],,4,4,,3,2,,
{8}8,1,2,3,4,5,6,,
{8}7,6,5,4,3,2,1,,
{8}2,3,4,5,2,1,8,7,
{8}1,2,3,4,1,8,7,6,
{1}5h[4:7],,
{1}3h[4:3],
{1}1h[4:3],
{4}8^3[2:1],5,,6,
{4}7^4[2:1],3,,2,
{1}1h[1:1],
{4}8,4/7,6/3,2/5,
{8}1h[8:3],,8,8,,7,6,,
{8}7h[8:3],,8,8,,1,2,,
{8}3h[8:3],,4,4,,5,6,,
{8}5h[8:3],,4,4,,3,2,,
{8}8/6h[8:3],,7,7,,1,2,,
{8}5/3h[8:3],,4,4,,5,6,,
{4}8h[4:1],6h[4:1],4h[4:1],2,
{4}1/7,8/6,4-1[8:1]/5-8[8:1],,
{8}7b/2b,,3,,4/2,,5,5h[4:1],
{8},6,,8/2h[4:1],,3h[4:1],,4,
{8}4-8[4:1],,1,1,,3,3,,
{8}2-6[4:1],,5,5,,3,3,,
{8}3b/6b,,2,,1/2,,3,3h[4:1],
{8},4,,5/7h[4:1],,1h[4:1],,2,
{8}2,1,8,7,8,1,2,3h[8:7],{1},
{8}7b/2b,,6,,7/5,,4,4h[4:1],
{8},3,,1/7h[4:1],,6h[4:1],,5,
{8}5-1[4:1],,8,8,,6,6,,
{8}7-3[4:1],,4,4,,6,6,,
{8}6b/3b,,7,,8/7,,6,6h[4:1],
{8},5,,4/2h[4:1],,8h[4:1],,7,
{8}7,8,1,2,1,8^3[8:5],7,
{1}8h[1:1],,
E
&inote_5=(178.0){1},
{4}1-5[4:3],2,,7,
{4}8-4[4:3],3,,6,
{4}2-6[4:3],3,,7,
{4}7-4[4:3],5,,3,
{8}2,2,,1,3,5,4,2,
{8}7,7,,8,6,4,5,7,
{8}1,8,,2,3,4,5,6,
{4}1-5[8:1],7-3[8:1],2-6[8:1],,
{8}1h[4:3],,3,2,,5,7,,
{8}6h[4:3],,7,5,,8,1,2,
{8}5h[4:3],,4,3,,7,1,,
{8}2h[4:3],,8,3,,6,4,5,
{8}6h[4:3],,5,7,,8,5,,
{8}7h[4:3],,5,6,,8,5,6,
{8}3h[4:3],,1,7,,8,6,,
{8}4h[4:3],,3,6,,3,5,,
{8}3h[2:1],4,5,6,6h[2:1],5,4,3,
{8}3h[2:1],2,1,8,5h[4:1],,1h[4:1],,
{8}7h[2:1],6,5,4,4h[1087:546],5,6,7,
{8}7h[2:1],8,1,2,4h[4:1],,8h[4:1],,
{8}2h[2:1],1,8,7,7h[2:1],8,1,2,
{8}2h[2:1],1,8,7,5h[4:1],,4h[4:1],,
{8}6h[2:1],5,4,3,3h[2:1],4,5,6,
{8}6h[2:1],7,8,1,2,3,4,5,
{1}6h[4:3]/2^7[2:1],
{1}2h[4:3]/7-3[2:1],
{1}7h[4:3]/3^6[2:1],
{1}3h[4:3]/6-2[2:1],
{8}2-5[16:1]/7-4[16:1],2/7,,3,6,4,5,4,
{8}1-4[16:1]/8-5[16:1],8/1,,2,7,1,8,1/8,
{8}2-5[16:1]/7-4[16:1],2/7,,3,6,4,5,4,
{8}1-4[16:1]/8-5[16:1],8/1,,2,7,1,8,1/8,
{1}2^7[2:1]/6^3[2:1],
{1}3^6[2:1]/7^2[2:1],
{8}1,8,,1-6[8:1],7-4[8:1],,,,
{8}4,5,,1^4[8:1],5^8[8:1],,,,
{4}1/2,2/3,3/4,4/5,
{4}5/6,6/7,8/7,1/8,
{8}8,7,6,5,4,3,2,1,
{16}1,2,3,4,5,6,7,8,1,8,7,6,5,4,3b,,
{8}2h[4:1],,1,,2-7[8:1],6-3[8:1],,,
{8},6,5,1^6[8:1]/4^1[8:1],,,,,
{8}8,,6,7,5,3,4,2h[8:3],
{16},,,,5^8[8:1],,,,1,2,3,4,5b,,,,
{8}7h[2:1],,,,1^6[8:1],6^3[8:1],,,
{8},4h[4:1],,5h[4:1],,6h[4:1],,,
{8}7-2[8:1],3-6[8:1],,,8-5[8:1],4-1[8:1],,,
{16},,,,8,,,,5,6,7,8b,4,3,2,1b,
{8}2h[4:1],,1,,5-2[8:1],4-7[8:1],,,
{8},1,8,7^2[8:1],,,,,
{8}7h[2:1],,8,1,2h[8:3],3,4,4h[8:3],
{16},,,,5,,,,4,5,4,5,4b,,6,,
{8}3h[4:1],,4,,8-4[8:1],2-6[8:1],,,
{8},4h[4:1],,3h[4:1],,2h[4:1],,,
{8}2-7[8:1],6-3[8:1],,,1-4[8:1],5-8[8:5],,,,,,,,
E
