&title=Spin me harder
&artist=D.watt(IOSYS)feat. Asana
&wholebpm=130
&demo_seek=18.5
&demo_len=16.5
&lv_1=3
&lv_2=6
&lv_3=8
&lv_4=12
&lv_5=13
&des_4=はっぴー
&des_5=mai-Star
&inote_1=(130.0){1},7,
{1}6,
{1}5,
{1}4,
{4}3,3,,,
{2}2,2,
{4}1,1,,,
{2}8,8,
{1}7-2[4:3],
{4},,,1b,
{4},8,,8,
{4},7,,7,
{4},6,,6,
{4},5,,5,
{4},4,,4,
{4},3,,3,
{4},2,,2,
{4},1,,1,
{4}1,1,,,{1},
{4}3,3,,,{1},
{4}5,5,,,{1},
{4}7,7,,,
{4},,,8-5[1:1],{1},,
{1}7h[2:1],
{1}6h[2:1],
{4}5,5,5,,
{2}5,5,
{1}4,
{4},3,3,3b,
{4},4,,4,
{4},3,,3,
{4},2,,2,
{4},1,,1,
{4},8,,7,
{4},6,,5,
{4},4,,3,
{4},2,,1,
{1}1/8,
E
&inote_2=(130.0){1},
{4},3,,3,
{4},6,,6,
{4},3,,3,
{4},6,,6,
{4},2,,2,
{4},7,,7,
{4},1,,1,
{4},8,,8,
{1}7h[4:7],,
{4}7,7,6,6,
{4}7,8,1,2,
{4}3,3,4,4,
{4}3,3,2,2,
{4}8,8,7,7,
{4}6,6,5,5,
{1}4-1[4:1],
{1}8-5[4:1],
{2}1h[4:1],2h[4:1],
{2}6h[4:1],5h[4:1],
{2}4h[4:1],3h[4:1],
{1}7h[4:1],
{4}1,1,7,7,
{4}3,3,5,5,
{4}4,4,6,6,
{4}5,4,3,2b,
{4}1h[2:1],,,8-5[4:1],{1},
{4}1,2h[2:1],,,
{4}7,6h[2:1],,,
{4}5,5,3,3,
{4}5,5,7,7,
{1}1h[4:3],
{4}2h[2:1],,,2b,
{4}1,8/1,8,8/7,
{4}8,1/8,1,2/1,
{1}1-5[4:1],,
{4}4,3/4,4,5/4,
{4}5,6/5,5,5/4,
{4}3,2h[2:1],,,
{4}8h[2:1],,,7-3[2:1],,,,
E
&inote_3=(130.0){1},
{2}2,4,
{1}6h[4:3],
{2}5,3,
{1}1h[4:3],
{4}8,8,7,7,
{4}6,6,5,5,
{4}7,7,8,8,
{4}1,1,2,2-7[2:1],{1},,
{8}7,6,7,,8,1,8,,
{8}7,6,7,,6,5,6,,
{2}7-2[8:1],8-5[8:1],
{2}1-4[8:1],2-7[8:1],
{8}8,7,8,,1,8,1,,
{8}2,1,2,,3,2,3,,
{1}1h[4:3],
{4}8h[4:3],,,1b,
{4}8,6,2,8,
{4}4,7,2,6,
{4}4,1,3,8,
{4}5,7,,,
{8}7,6,7,,1,2,1,,
{8}3,4,3,,2,1,2,,
{2}8h[4:1],7h[4:1],
{4}6-3[4:1],,,2b,
{16}1,,,8,,,8h[8:3],,,,,,,,,,
{16}1,,,2,,,2h[8:3],,,,,,,,,,
{16}3,,,4,,,4h[8:3],,,,,,,,,,
{16}3,,,2,,,2h[8:3],,,,,,,,,,
{4}1,1/8,8,8/7,
{4}6,4/5,7,8/1,
{1}2h[4:3],
{4}3h[4:3],,,1b,
{8}8,6,4,,5,7,1,,
{8}7,5,3,,4,6,8,,
{2}1-5[8:1],2-6[8:1],
{2}3-7[8:1],4-8[8:1],
{8}7,5,3,,4,6,8,,
{8}2,4,6,,5,3,1,,
{1}7-3[2:1],
{4}2h[4:3],,,1b,
{8}8-5[8:1],,,,
E
&inote_4=(130.0){1},
{16}6,,,8,,,1,,3,,,1,,,8,,
{4},4,5,4,
{16}2,,,4,,,5,,7,,,5,,,4,,
{16},,,,8,,,,1,,,1b,,,,,
{16}3,,,1,,,8,,6,,,8,,,1,,
{4},5,4,5,
{16}2,,4,4,,,5,,7,,,5,,,4,,
{4},7,2,7b,{1},
{4},5h[4:1],3h[4:1],1b,
{4}7h[2:1],8,8^3[8:1],6,
{4}2h[2:1],1,1^6[8:1],3,
{8}2h[4:1],,,5/2-5[8:1],,1,,8/4-8[8:1],
{8},5,,1/6-1[8:1],,5,8b,,
{4}6h[2:1],5,5^2[8:1],7,
{4}3h[2:1],4,4^7[8:1],2,
{8},,1h[2:1]/5h[2:1],,,,,1^4[4:1],
{8},4^7[4:1],,7^2[4:1],,,,,
{2}1-5[4:1],7-4[4:1],
{2}2-5[4:1],8-4[4:1],
{2}2-5[4:1],1-4[4:1],
{4}8-5[4:1],,,1b,
{4}1-5[8:1],7-4[8:1],2-5[8:1],8-4[8:1],
{4}2-5[8:1],1-4[8:1],8-5[8:1],7-4[8:1],
{4}1-5[8:1],7-4[8:1],2-5[8:1],8-4[8:1],
{4}2-5[8:1],1-4[8:1],8-5[8:1],,
{16}6,7,6,7,6,,8,,7^4[8:1],,,,,,,,
{16}3,4,3,4,3,,2,,2^5[8:1],,,,,,,,
{16}2,1,2,1,2,,3,,3^8[8:1],,3,,,,,,
{16}7,8,7,8,7,,6,,6^1[8:1],,6,,,,,,
{16}2,3,2,3,2,,1,8,1^6[8:1],,1,,,,,,
{16}7,6,7,6,7,,8,1,8^3[8:1],,8,,,,,,
{16}3,5,3,5,3,,7,8,3^8[8:1],,,6b,,,4b,,
{4},6^1[8:1],3^8[8:1],,
{4}2/5-2[8:1],6,7/4-7[8:1],3,
{4}1/6-1[8:1],5,8/3-8[8:1],4,
{8}2/5-2[8:1],5,6,,7/4-7[8:1],4,3,,
{8}1/6-1[8:1],6,5,,8/3-8[8:1],3,1b,,
{8}4/7^4[8:1],7,8,8,5/2^5[8:1],2,1,1,
{8}1/6^1[8:1],6,5,5,8/3^8[8:1],3,4,4,
{8}6-1[4:1],,6h[2:1],,,,,2-5[4:1],
{8},2h[8:5],,,,,8-4[2:1],,,,,,,
E
&inote_5=(130.0){1},
{16}6,,,7,,,8,,8h[16:3],,,1,,,2h[16:3],,
{16},4h[16:3],,,6h[8:1],,,,,,,,,,,,
{16}3,,,2,,,1,,1h[16:3],,,8,,,7h[16:3],,
{16},5h[16:3],,,3h[8:1],,,,,,,,,,,,
{16}7,,,8,,,1,,1h[16:3],,,2-7[8:1],,,2-6[8:1],,
{16},2-5[8:1],,,,,,,,,,,,,,,
{16}4,,,3,,,2,,2h[16:3],,,1-6[8:1],,,1-5[8:1],,
{16},1-4[8:1],,,,,,,,,,,,,,,
{16}2h[16:3],,,3,,,5/4,,7h[16:3],,,6,,,1/8,,
{4},2/8,2-5[8:1]/8-5[8:1],,
{16}1,1,1,,7,7,7,,5,5,5,,3,3,3,,
{16}7,8,7,,2,1,2,,4,3,4,,5,6,5,,
{16}2,1,8,,7,6,5,,4,3,2,,1,8,2,7,
{16}1,8,1,8,2,6,2,6,4,6,4,6,5,7,5,7b,
{16}5h[8:1],6,6,,4h[8:1],3,3,,8h[8:1],7,7,,1h[8:1],2,2,,
{16}2h[8:1],6,6,,7h[8:1],3,3,,4h[8:1],8,8,,8h[8:1],1,1,,
{4}1^6[4:1],6^3[4:1],3^8[4:1],8^5[4:1],
{4}5^2[4:1],2^7[4:1],7^4[4:1],,
{8}8h[4:1],
{999}7,,,,,,,,,,,,,,,,,,,,,,,,,,,,,,,,,,,,,,,,,,,,,,,,,,,,,,,,,,,,,,,,,,,,,,,,,,,,,,,,,,,,,,,,,,,,,,,,,,,,,,,,,,,,,,,,,,,,,,,,,,,,,
{993}1h[1997:499],,,,,,,,,,,,,,,,,,,,,,,,,,,,,,,,,,,,,,,,,,,,,,,,,,,,,,,,,,,,,,,,,,,,,,,,,,,,,,,,,,,,,,,,,,,,,,,,,,,,,,,,,,,,,,,,,,,,,,,,,,,,
{8}2,8h[4:1],7,1h[4:1],2,
{8}5h[4:1],6,4h[4:1],3,5h[4:1],6,4h[4:1],3,
{8}1-5[8:1],1^6[8:1],1,1,8-4[8:1],8^3[8:1],8,8,
{4}8b,1b,,,
{8}1h[4:1],2,3h[1805:448],4,5h[4:1],6,7h[4:1],8,
{8}8h[4:1],7,6h[4:1],5,4h[4:1],3,2h[4:1],1,
{8}3-7[8:1],3^8[8:1],3,3,6-2[8:1],6^1[8:1],6,6,
{1}6^3[10000:4999],
{16}7h[2:1],,,1,,,3,,5,,,,,,,,
{16}2h[2:1],,,8,,,6,,4,,,,,,,,
{16}7h[16:3],,,3h[16:5],,,1,,5,,,,8/2,,,,
{16}2h[16:3],,,6h[16:5],,,8,,4,,4,,4/5,,,,
{4}2h[4:1],4h[4:1],7h[4:1],5h[4:1],
{4}1h[4:1],3h[4:1],8h[4:1],6h[4:1],
{4}7-2[4:1],2-6[4:1],6-3[4:1],,
{8},,4-1[8:1],1-6[8:1],6-3[8:1],3-7[8:1],,,
{16}2,6,2,,7,3,7,,4,8,4,,1,5,1,,
{16}4,8,4,,7,3,7,,2,6,2,,5,1,5,,
{16}8,8,8,,6,6,6,,4,4,4,,2,3,2,3,
{16}7,1,7,1,7,3,7,3,7,5,7,5,7,1,3,5b,
{16}1h[8:1],2,2,,4h[8:1],3,3,,8h[8:1],7,7,,6h[8:1],5,5,,
{16}1h[8:1],2,2,,8h[8:1],7,7,,4h[8:1],3,3,,5h[8:1],6,6,,
{4}1-6[8:1],7-4[8:1],5-2[8:1],3-8[8:1],
{4}2^5[8:1],1^6[8:1],8^3[8:1],
{1}7^4[4:3],,
E
