&title=Night Fly
&artist=発熱巫女〜ず
&first=0
&des=
&wholebpm=127
&demo_seek=20.9
&demo_len=14.6
&des_4=mai-Star
&des_5=ニャイン
&des_6=Moon Strix
&lv_1=3
&lv_2=3
&lv_3=8
&lv_4=11+
&lv_5=13
&lv_6=13
&inote_1=(127.0){1},7,
{1}8,
{1}1,
{1}2,
{1}3,
{1}2,
{1}1,
{1}8,
{1}1,
{1}8,
{1}1h[2:1],
{1}2h[2:1],
{1}3h[2:1],
{2}4,4,
{1}5h[2:1],
{1}6h[2:1],
{1}7h[2:1],
{2}8,8,
{1}7-2[4:3],,
{1}2h[2:1],
{1}1h[2:1],
{1}1-4[4:3],,
{1}5h[2:1],
{1}6h[2:1],
{1}7h[1:1],,
{1}8h[1:1],
{8},,,,,,,1,{1},
{1}2,
{1}1,
{4}8,,,8b,
{1}8h[2:1],
{1}7h[2:1],
{1}6h[2:1],
{2}5,5,
{1}4h[2:1],
{1}3h[2:1],
{1}2h[2:1],
{2}1/8,1/8,
E
&inote_2=(127.0){1},1,
{1}2,
{1}1,
{1}8,
{2}7,7,
{2}6,6,
{2}7,7,
{2}8,8,
{1}1h[4:3],
{1}2h[4:3],
{4},1,,1,
{4},8,,8,
{4},1,,1,
{4},2,,2b,
{4},3,,3,
{4},4,,4,
{4},3,,3-8[2:1],{1},
{4},8,,8,
{4},8,,8,
{4},7,,7,
{4},7,,7,
{4},8,,8,
{4},1,,1,
{4},2,,2,
{4},3,,3-7[2:1],{1},
{1}7h[4:3],
{1}6h[4:3],
{1}5h[4:3],
{4},6,,6,
{4},8,,8,
{1}1h[4:3],
{4}1,1,8,8b,
{4},7,,6,
{4},7,,8,
{4},1,,2,
{4},3,,4b,
{4},2,,1,
{4},2,,3,
{4},1,,7,
{4},5,,3-6[2:1],,,,
E
&inote_3=(127.0){1},3h[4:3],
{1}5h[4:3],
{1}7h[4:3],
{1}1h[4:3],
{4}8,8,7,7,
{4}6,6,5,5,
{4}4,4,3,3,
{4}2,2,1,1,
{1}8-3[4:1],
{4}4-7[4:1],,,8b,
{16}1,,,,2h[4:1],,,,3,,,4h[16:5],,,,,
{16},,,,2h[4:1],,,,1,,,8h[16:5],,,,,
{16},,,,6h[4:1],,,,5,,,4h[1876:587],,,,,
{16}7h[16:3],,,
{155}8h[16:3],,,,,,,,,,,,,,,,,,,,,,,,,,,,,
{4}1,
{995}2h[834:313],,,,,,,,,,,,,,,,,,,,,,,,,,,,,,,,,,,,,,,,,,,,,,,,,,,,,,,,,,,,,,,,,,,,,,,,,,,,,,,,,,,,,,,,,,,,,,,,,,,,,,,,,,,,,,,,,,,,,,,,,,,,,,,,,,,,,,,,,,,,,,,,,,,,,,,,,,,,,,,,,,,,,,,,,,,,,,,,,,,,,,,,,,,,,,,,,,,,,,,,,,,,,,,,,,,,,,,,,,,,,,,,,,,,,,,,,,,,,,,,,,,,,,,,,,,,,,,,,,,,,,,,,,,,,,,,,,,,,,,,,,,,,,,,,,,,,,,,,,,,,,,,,,,,,,,,,,,,,,,,,,,,,,,,,,,,,,,,,,,,,,,,,,,,,,,,,,,,,,,,,,,,,,,,,,,,,
{16}1,,,,8h[4:1],,,,7,,,6h[16:5],,,,,
{16},,,,8h[4:1],,,,1,,,2h[16:5],,,,,
{16},,,,4h[4:1],,,,5,,,6h[16:5],,,,,
{16}7,,,8/1,,,1h[8:3]/2h[8:3],,,,,,,,,,
{4}8,8,6,6,
{4}4,4,2,2,
{2}3h[2:1],4h[2:1],
{2}5h[2:1],6h[2:1],
{4}7,8,7,7,
{4}4,3,4,4,
{2}5h[2:1],6h[2:1],
{2}7h[2:1],8h[2:1],
{1}1-4[2:1],,
{1}5-8[2:1],
{8},,,,,,,1h[8:7],
{4},,,2h[4:1],
{16}3,,,3h[16:9],,,,,,,,,,,,,
{8}1h[8:7],,,,,8,8,8h[8:7],
{4},,,7b,
{4}1h[4:1],2,7h[4:1],6,
{4}4h[4:1],3,4h[4:1],5,
{4}7h[4:1],8,1h[4:1],2,
{4}8h[4:1],7,8h[4:1],1,
{4}2h[4:1],3,6h[4:1],5,
{4}3h[4:1],4,7h[4:1],6,
{4}1h[4:1],2,1h[4:1],8,
{4}7h[4:3],,,6-2[4:1],,,
E
&inote_4=(127.0){1},2h[1:1],
{1}4h[1:1],
{1}6h[1:1],
{1}8h[1:1],
{4}7h[1:1],6,,6,
{4}4h[1:1],3,,3,
{4}1h[1:1],8,,8,
{4}2h[1:1],3,,3,
{8}1,1,8,8,7,7,6,6,
{8}8,1,2,3,4/5,6/7,8b/1b,,
{16}8^3[8:1],,,,,,,,8,7,,6h[16:5],,,,,
{16}5^2[8:1],,,,,,,,5,6,,7h[16:5],,,,,
{16}8^3[8:1],,,,,,,,8,7,,6h[16:5],,,,,
{16}5h[8:3],,,3,,,7h[1154:287],,,,1h[8:3],,,,,,
{16}3-8[8:1],,,,,,,,8,8,,7h[16:5],,,6,,
{16}6-2[8:1],,,,,,,,2,2,,3h[16:5],,,4,,
{16}4-8[8:1],,,,,,,,8,8,,7h[16:5],,,,,
{16}5h[16:3],,,3,,,1h[8:3]/2h[8:3],,,,,,,,,,
{8}2,3,4,,2,1,8,,
{8}1,2,3,,1,8,7,,
{989}1h[1253:261],,,,,,,,,,,,,,,,,,,,,,,,,,,,,,,,,,,,,,,,,,,,,,,,,,,,,,,,,,,,,,,,,,,,,,,,,,,,,,,,,,,,,,,,,,,,,,,,,,,,,,,,,,,,,,,,,,,,,,,,,,,,,,,,,,,,,,,,,,,,,,,,,,,,,,,,,,,,,,,,,,,,,,,,,,,,,,,,,,,,,,,,,,,,,,,,,,,,,,,,,,,,,,
{983}2,,,,,,,,,,,,,,,,,,,,,,,,,,,,,,,,,,,,,,,,,
{4}3,
{989}7h[1253:261],,,,,,,,,,,,,,,,,,,,,,,,,,,,,,,,,,,,,,,,,,,,,,,,,,,,,,,,,,,,,,,,,,,,,,,,,,,,,,,,,,,,,,,,,,,,,,,,,,,,,,,,,,,,,,,,,,,,,,,,,,,,,,,,,,,,,,,,,,,,,,,,,,,,,,,,,,,,,,,,,,,,,,,,,,,,,,,,,,,,,,,,,,,,,,,,,,,,,,,,,,,,,,
{983}6,,,,,,,,,,,,,,,,,,,,,,,,,,,,,,,,,,,,,,,,,
{4}5,
{989}2h[1253:261],,,,,,,,,,,,,,,,,,,,,,,,,,,,,,,,,,,,,,,,,,,,,,,,,,,,,,,,,,,,,,,,,,,,,,,,,,,,,,,,,,,,,,,,,,,,,,,,,,,,,,,,,,,,,,,,,,,,,,,,,,,,,,,,,,,,,,,,,,,,,,,,,,,,,,,,,,,,,,,,,,,,,,,,,,,,,,,,,,,,,,,,,,,,,,,,,,,,,,,,,,,,,,
{983}3,,,,,,,,,,,,,,,,,,,,,,,,,,,,,,,,,,,,,,,,,
{4}4,
{989}8h[1253:261],,,,,,,,,,,,,,,,,,,,,,,,,,,,,,,,,,,,,,,,,,,,,,,,,,,,,,,,,,,,,,,,,,,,,,,,,,,,,,,,,,,,,,,,,,,,,,,,,,,,,,,,,,,,,,,,,,,,,,,,,,,,,,,,,,,,,,,,,,,,,,,,,,,,,,,,,,,,,,,,,,,,,,,,,,,,,,,,,,,,,,,,,,,,,,,,,,,,,,,,,,,,,,
{983}7,,,,,,,,,,,,,,,,,,,,,,,,,,,,,,,,,,,,,,,,,
{8}6,,
{8}8,1,2,,8,7,6,,
{8}7,8,1,,7,6,5,,
{989}8h[1253:261],,,,,,,,,,,,,,,,,,,,,,,,,,,,,,,,,,,,,,,,,,,,,,,,,,,,,,,,,,,,,,,,,,,,,,,,,,,,,,,,,,,,,,,,,,,,,,,,,,,,,,,,,,,,,,,,,,,,,,,,,,,,,,,,,,,,,,,,,,,,,,,,,,,,,,,,,,,,,,,,,,,,,,,,,,,,,,,,,,,,,,,,,,,,,,,,,,,,,,,,,,,,,,
{983}1,,,,,,,,,,,,,,,,,,,,,,,,,,,,,,,,,,,,,,,,,
{4}2,
{989}7h[1253:261],,,,,,,,,,,,,,,,,,,,,,,,,,,,,,,,,,,,,,,,,,,,,,,,,,,,,,,,,,,,,,,,,,,,,,,,,,,,,,,,,,,,,,,,,,,,,,,,,,,,,,,,,,,,,,,,,,,,,,,,,,,,,,,,,,,,,,,,,,,,,,,,,,,,,,,,,,,,,,,,,,,,,,,,,,,,,,,,,,,,,,,,,,,,,,,,,,,,,,,,,,,,,,
{983}6,,,,,,,,,,,,,,,,,,,,,,,,,,,,,,,,,,,,,,,,,
{4}5,
{989}1h[1253:261],,,,,,,,,,,,,,,,,,,,,,,,,,,,,,,,,,,,,,,,,,,,,,,,,,,,,,,,,,,,,,,,,,,,,,,,,,,,,,,,,,,,,,,,,,,,,,,,,,,,,,,,,,,,,,,,,,,,,,,,,,,,,,,,,,,,,,,,,,,,,,,,,,,,,,,,,,,,,,,,,,,,,,,,,,,,,,,,,,,,,,,,,,,,,,,,,,,,,,,,,,,,,,
{983}2,,,,,,,,,,,,,,,,,,,,,,,,,,,,,,,,,,,,,,,,,
{4}3,
{989}2h[1253:261],,,,,,,,,,,,,,,,,,,,,,,,,,,,,,,,,,,,,,,,,,,,,,,,,,,,,,,,,,,,,,,,,,,,,,,,,,,,,,,,,,,,,,,,,,,,,,,,,,,,,,,,,,,,,,,,,,,,,,,,,,,,,,,,,,,,,,,,,,,,,,,,,,,,,,,,,,,,,,,,,,,,,,,,,,,,,,,,,,,,,,,,,,,,,,,,,,,,,,,,,,,,,,
{983}1,,,,,,,,,,,,,,,,,,,,,,,,,,,,,,,,,,,,,,,,,
{4}8,
{4}7h[4:3],,,6-2[2:1],{1},
{1}2h[1:1],
{8}3h[8:5],,,,,1,8,7h[8:7],
{4},,,8^3[2:1],{1},
{8}1,8,7,6,5,4,3,2,
{8}1,3,5,7,4/6,3/5,2b/4b,1b/3b,
{8}1,
{12}1,
{983}2,,,,,,,,,,,,,,,,,,,,,,,,,,,,,,,,,,,,,,,,,
{8}3,3,8,
{12}8,
{983}7,,,,,,,,,,,,,,,,,,,,,,,,,,,,,,,,,,,,,,,,,
{8}6,6,
{8}4,
{12}4,
{983}5,,,,,,,,,,,,,,,,,,,,,,,,,,,,,,,,,,,,,,,,,
{8}6,6,8,
{12}8,
{983}1,,,,,,,,,,,,,,,,,,,,,,,,,,,,,,,,,,,,,,,,,
{8}2,2,
{8}4,
{12}4,
{983}3,,,,,,,,,,,,,,,,,,,,,,,,,,,,,,,,,,,,,,,,,
{8}2,2,8,
{12}8,
{983}7,,,,,,,,,,,,,,,,,,,,,,,,,,,,,,,,,,,,,,,,,
{8}6,6,
{16}7h[16:3],,,8h[16:3],,,2h[4:1],,,,4h[1607:606],,,,,,
{16}3,,
{12}3,
{983}2,,,,,,,,,,,,,,,,,,,,,,,,,,,,,,,,,,,,,,,,,
{24}1,,,1,,
{983}8,,,,,,,,,,,,,,,,,,,,,,,,,,,,,,,,,,,,,,,,,
{24}1,,,1,,
{983}2,,,,,,,,,,,,,,,,,,,,,,,,,,,,,,,,,,,,,,,,,
{8}3,3b,
{8}3,
{12}3,
{983}2,,,,,,,,,,,,,,,,,,,,,,,,,,,,,,,,,,,,,,,,,
{24}1,,,1,,
{983}8,,,,,,,,,,,,,,,,,,,,,,,,,,,,,,,,,,,,,,,,,
{24}7,,,7,,
{983}6,,,,,,,,,,,,,,,,,,,,,,,,,,,,,,,,,,,,,,,,,
{8}5,5b,
{8}8,
{12}8,
{983}2,,,,,,,,,,,,,,,,,,,,,,,,,,,,,,,,,,,,,,,,,
{24}4,,,4,,
{983}5,,,,,,,,,,,,,,,,,,,,,,,,,,,,,,,,,,,,,,,,,
{24}7,,,7,,
{983}8,,,,,,,,,,,,,,,,,,,,,,,,,,,,,,,,,,,,,,,,,
{8}2,2b,
{16}8h[16:3],,,6h[16:3],,,4h[8:3],,,,,,3-8[4:1],,,,,,,,,
E
&inote_5=(127.0){1},
{2}4-8[2:1],1h[2:1],
{2}7-3[2:1],2h[2:1],
{2}1,8,
{4}2,4,6,8b,
{4}1-5[4:1],8,6,4,
{4}2-6[4:1],3,5,7,
{4}8-4[4:1],1,3,5,
{4}6^3[4:1],6,1^6[4:1],1,
{8}1,2,3,4,5,6,7,8,
{16}6-2[16:1],,4-8[16:1],,,,,,7-3[8:1],6,5,4,,,1b,,
{16}8-4[16:1],,,8,1-5[16:1],,,1,7-3[16:1],,,7,,,2,,
{16}2-6[16:1],,,2,8-4[16:1],,,8,1-5[16:1],,,1,,,6,,
{16}6-2[16:1],,,6,4-8[16:1],,,4,5-1[16:1],,,5,,,8,,
{4}8-4[8:1],7-3[8:1],6-2[8:1],1b,
{16}1-5[16:1],,,1,8-4[16:1],,,8,2-6[16:1],,,2,,,7,,
{16}7-3[16:1],,,7,1-5[16:1],,,1,8-4[16:1],,,8,,,3,,
{16}3-7[16:1],,,3,5-1[16:1],,,5,4-8[16:1],,,4,,,7,,
{16}6h[8:3],,,4,,,2h[8:3],,,,,,,,,,
{8}2h[4:1],3,4h[4:1],,2h[4:1],1,8h[4:1],,
{8}1h[4:1],2,3h[4:1],,1h[4:1],8,7h[4:1],,
{8}8-4[4:1],8,,,2-6[4:1],2,,,
{8}1-5[4:1],1,,,8-4[4:1],8,,,
{8}8h[4:1],1,2h[4:1],,8h[4:1],7,6h[4:1],,
{8}7h[4:1],8,1h[4:1],,7h[4:1],6,5h[4:1],,
{8}6-2[4:1],6,,,4-8[4:1],4,,,
{8}1-5[4:1],1,,,2-6[4:1],2,8b,,
{1}1h[1:1],
{1}2h[1:1],
{2}3-7[2:1],8-4[2:1],
{8}2-6[2:1],,,,5-1[2:1],,,2h[8:5],
{8},,,,,,3h[4:1],4,
{16}1h[1459:274],,,7h[16:9],,,,,,,,,,,,,
{8}6,6,5,5,4,4,3,3,
{16}4,5,6,7,3,5,7,1,6/2,,7/3,,8b/4b,,,,
{16}8-4[16:1],,,8,2-6[16:1],,,2,1-5[16:1],,,1,8-4[16:1],,,8,
{16}7-3[16:1],,,7,1-5[16:1],,,1,8-4[16:1],,,8,1-5[16:1],,,1,
{16}7-3[16:1],,,7,5-1[16:1],,,5,3-7[16:1],,,3,,,6,,
{16}7h[8:3],,,8,,,1h[4:1],,,,2h[4:1],,,,1b,,
{16}1-5[16:1],,,1,7-3[16:1],,,7,8-4[16:1],,,8,1-5[16:1],,1b,,
{16}2-6[16:1],,,2,8-4[16:1],,,8,1-5[16:1],,,1,8-4[16:1],,8b,,
{16}2-6[16:1],,,2,4-8[16:1],,,4,6-2[16:1],,,6,,,2,,
{16}3^8[16:1],,,4,,,6h[8:5],,,,,,4-8[8:1],,,,,,,
E
&inote_6=(127.0){1},
{16}2/4-8[2:1],,,,8,,,,6,6,,7,,,,,
{16}7/5-1[2:1],,,,1,,,,3,3,,2,,,,,
{16}2/4-8[2:1],,,,8,,,,6,6,,7,,,1/7,,
{16}8h[16:3],,,6h[16:3],,,4h[8:3],,,,2,,2,,,,
{16}5/3<8[2:1],,,,8,,,,1,1,,2,,,,,
{16}4/6>1[2:1],,,,1,,,,8,8,,7,,,,,
{16}5/3<8[2:1],,,,8,,,,1,1,,2,,,1/7,,
{16}8h[16:3],,,2h[16:3],,,4h[8:3],,,,6,,6,,5,,
{8}4,5,6,7,8,1,2,3,
{16}4,5,6,7,3,5,7,1,2/6,,3/7,,4b/8b,,1/7,,
{16}6/8,,1,8,2^5[16:3],,5,5-1[8:1],2,7,,7,,,8,,
{16}1/3,,8,1,7^4[16:3],,4,4-8[8:1],7,2,,2,,,1,,
{16}6/8,,1,8,2^5[16:3],,5,5-1[8:1],2,7,,7,,,8-4[8:1],,
{16}4-7[16:3],,,7-2[8:1],,,2<6[8:1],,,,5,,5,,,,
{16}6,,2,1,3^6[16:3],,6,6-1[8:1],3,8,,8,,,7,,
{16}1/2,,7,8,6^3[16:3],,3,3-8[8:1],6,1,,1,,,2,,
{16}7/8,,2,1,3^6[16:3],,6,6-1[8:1],3,8,,8,,,7,,
{16}8h[8:1]/1b>7[2:1],,,8h[8:1],,,8h[8:3],,,,,,,,,,
{8}6h[2:1],5,7,8,1h[2:1],2,8,7,
{8}6h[2:1],8,7,5,4,3/5,2/4,1/3<7[4:1],
{8},7>3[4:1],,3<7[4:1],,7>6[2:1]*q6[2:1],,,
{16},,,,,,,,,,,5,4,,4,,
{8}3h[2:1],4,2,1,8h[2:1],7,1,2,
{8}3h[2:1],1,2,4,5,4/6,5/7,8/6>2[4:1],
{8},2<6[4:1],,6>2[4:1],,2<3[2:1]*p3[2:1],,,
{8},,,,8,8,8,8,
{1}8h[4:7]/7bp4[8:3],
{1}1q4[8:3],
{1}1h[2:3]/2bq5[8:3],
{8}8q5[4:1],,,,,6/8,1/7,8b/2h[8:5],
{8},1,3,1,3,,2/4,3/5,
{16}4b/6h[16:3],,,7h[16:9],,,6,,8,,6,,8,,1/8,,
{8}4,5,6,7,8,1,2,3,
{16}5,1,7,3,5,1,7,3,2b^5[8:1]/6b^1[8:1],,4b/8b,,2b/6b,,,,
{16}1/3,,8,1,7V58[16:3],,8,8-3[8:1],7,2,,2,,,4,,
{16}6/8,,1,8,2V41[16:3],,1,1-6[8:1],2,7,,7,,,5,,
{16}1/3,,8,1,7V58[16:3],,8,8-3[8:1],7,2,,2,,,1-5[8:1],,
{16}5-2[8:1],,,2-7[16:3],,,7>3[8:1],,,,4,,4,,,,
{16}6,,4,5,3V14[16:3],,4,4-8[8:1],3,6,,6,,,5,,
{16}2/4,,5,4,6V85[16:3],,5,5-1[8:1],6,3,,3,,,4,,
{16}5/7,,4,5,3V14[16:3],,4,4-8[8:1],3,6,,6,,,5,,
{16}1h[8:1]/8b<2[8:3],,,1h[8:1],,,1h[4:1],,,,,,4-1[4:3],6,2,8,
{4}4b,,,,
E
