&title=Natural Flow
&artist=KENTARO「Crackin’DJ」
&wholebpm=100
&demo_seek=45.2
&demo_len=18.8
&lv_1=2
&lv_2=4
&lv_3=7+
&lv_4=11+
&lv_5=12+
&des_4=譜面-100号
&des_5=ニャイン
&inote_1=(100.0){1},,,
{1}1,
{1}1,
{2}8,8,
{1}8b,
{1}7,
{1}6,
{2}7,8,
{1}8/1,
{2}2,2,
{2}3,3,
{2}4,4,
{1}3/6,
{2}7,7,
{2}8,8,
{2}1,1,
{1}7/2,
{4}1,1,,,
{4}8,8,,,
{2}7,6,
{1}5/4,
{1}3,
{1}2,
{2}1,1,
{1}1b,
{1}8-5[2:1],,
{1}1-4[2:1],
{4},,,8/1,
{1}2,
{1}3,
{2}2,1,
{1}8b,
{4}7,7,,,
{4}6,6,,,
{2}7,8,
{1}1/8,
{1}2,
{1}3,
{2}2,1,
{1}8b,
E
&inote_2=(100.0){1},,,
{2}7,7,
{2}8,8,
{2}2,2,
{8},,,,,1,1b,,
{2}3,3,
{2}4,4,
{2}5,5,
{1}4h[4:3],
{4},3,3,3,
{4},1,1,1,
{4},7,7,7,
{4},8/7,,1/2,
{4},3,3,3,
{4},5,5,5,
{4},7,7,7,
{4},1/8,,1/2,
{4},8,8,7-4[4:1],{1},
{4},2,2,3-8[4:1],{1},
{4},8,8,1-4[4:1],{1},
{4}6,5,4,3,
{2}2h[4:1],8h[4:1],
{4},1,,1,
{4},2,,2,
{4},3,,3,
{8},,,,,2,2b,,
{4},8/1,,1/8,
{4},7/8,,7/8,
{4},6/7,,7/6,
{8},,8,,,8,8b,,
{4}1,1,2,2,
{4}3,3,4,4,
{4}5,5,6,6,
{2}7h[4:1],8h[4:1],
{4}7,7,6,6,
{4}5,5,4,4,
{4}5,5,6,6,
{8}8/7,,,1/8,,,2/1,
E
&inote_3=(100.0){1},
{4}1h[4:1],8,8h[4:1],1,
{16}2,,,,4,,,3,,3,,2h[16:3],,,,,
{16}1,,,,8,,8,,,,
{891}7,,,,,,,,,,,,,,,,,,,,,,,,,,,,,,,,,,,,,,,,,,,,,,,,,,,,,,,,,,,,,,,,,,,,,,,,,,,,,,,,,,,,,,,,,,,,,,,,,,,,,,,,,,,,,,,,
{357}7,,,,,,,,,,,,,,,,,,,,,,,,,,,,,,,,,,,,,,,,,,,,,,,,,,,,,,,,,,,,,,,,,,,,,,,,,,,,,,,,,,,,,,,,,
{8}1,1,,2,,3,3,,
{8}8,,7,7,,6,6,,
{8}7h[4:1],,1h[4:1],,,3,3b,,
{8}1,,8,8,,7,7,,
{8}8,,2,2,,4,4,,
{8}2,,8,8,,7,7,,
{4}6h[4:3],,,5b,
{16}8,,8,,1h[16:7],,,,2,,,2,,,,,
{16}8,,8,,7h[16:7],,,,6,,,6,,,,,
{16}4,,4,,3h[16:7],,,,2,,,2,,,,,
{8}1b/8b,,,7,7,,1/8,,
{4}1,2,3,4,
{4}5,6,7,8,
{2}1h[2:1],2h[2:1],
{8}1h[8:3],,,8,,7,7b,,
{16}1,,2,,2,,,1,,,8,,7/8,,,,
{16}8,,8,,1,,,2,,,3,,3/4,,,,
{16}5,,6,,6,,,7,,,5,,3/4,,,,
{16}5,,6,,6,,,7,,,8,,1/2,,,,
{16}8,,7,,6,,,8,,,2,,4/3,,,,
{16}1,,1,,8,,,1,,,3,,4/5,,,,
{2}3h[4:1],2h[4:1],
{4}3h[4:1],4,5h[4:1],6,
{1}5^2[2:1],
{1}1^6[2:1],
{1}4-1[2:1]/5-8[2:1],
{8}1,,1,8,,8,1/8,,
{8}1,,2,3,,3,2,,
{8}1,,8,7,,7,8,,
{8}1,,2,3,,2,1,,
{4}2h[4:1],4h[4:1],6h[4:1],8h[4:1],
{8}1h[4:3],,2,3,,3,2,,
{8}1h[4:3],,8,7,,7,8,,
{8}3h[4:3],,4,5,,5,4,,
{8}1,,8/7,,,1,1/2,,
{1}8-4[2:1],
{1}1-5[2:1],
{4}4/5,3/6,2/7,1/8,
{4}1^4[2:1]/8^5[2:1],,,,
E
&inote_4=(100.0){1},,
{16}7,,,,2,,,8,,8,,1b,,,,,
{4}6h[4:7],3,2,1,
{2}8h[4:1],7h[4:3],
{2}8h[4:3],1h[4:3],
{8}2,,2,,,8,1,,
{4}3h[4:7],6,7,8,
{2}1h[4:1],2h[4:3],
{2}1h[4:3],8h[4:3],
{8}7,,7,,,6,6,,
{8}1,1,2h[2:1],,8,8,7h[2:1],,
{8}8,1,2h[2:1],,1,8,7h[2:1],,
{8}2,3,1h[2:1],,7,6,8h[4:1],,
{8}1h[1:1],,5,,5,,5,5,
{8}4h[2:1],3,3,,5h[2:1],6,6,,
{8}3h[4:1],4,4h[4:1],5,5h[4:1],6,6,,
{8}5/6h[8:1],5h[8:1],6,,4/3h[8:1],4h[8:1],3,,
{1}1-4[2:1]/2-7[2:1],
{16}8h[8:1],,,8,7h[8:1],,,7,6h[8:1],,,6,5h[8:1],,,5,
{16}3h[8:1],,,3,4h[8:1],,,4,5h[8:1],,,5,6h[8:1],,,6,
{16}1h[8:1],,,1,2h[8:1],,,2,3h[8:1],,,3,4h[8:1],,,4,
{16}6h[8:1],,,6,5h[8:1],,,5,4h[8:1],,,4,3h[8:1],,,7,
{16}7h[8:1],,,8,8h[8:1],,,1,1h[8:1],,,2,2h[8:1],,,5,
{16}5h[8:1],,,6,6h[8:1],,,7,7h[8:1],,,8,8h[8:1],,,2,
{16}2h[8:1],,,1,1h[8:1],,,8,8h[8:1],,,7,7h[8:1],,,4,
{8}4h[4:1],,5,5h[4:1],,2,
{4}2^7[2:7],{1},,,
{8},,,,,1b/8b,1b/8b,,
{4}3h[2:1],,8^3[4:1],3^6[4:1],{1},
{4}6h[2:1],,1^6[4:1],6^3[4:1],
{8},,,,,6,6,,
{8}1-6[8:1],6-2[8:1],2-5[8:1],,,,,,
{4},7,,7,
{8}7-3[8:1],3^6[8:1],6-2[8:1],,,,,,
{4},8,,8,
{8}8^5[8:1],5-1[8:1],1^4[8:1],,,,,,
{4},3,,3,
{8}3-6[8:1],6-1[8:1],1-4[8:1],,,,,,
{8}2-7[8:3],,,7^2[8:3],,,,,,
E
&inote_5=(100.0){1},
{8}6-2[1000:251],,,8,,4-8[4:1],,,
{16}1h[4:3],,,,,,,,,7,,5h[16:5],,,1b,,
{8}3-8[4:1],,,2h[1961:734],,3,4,,
{8}2^5[4:1],1,,2h[8:3],,1,8b,,
{8}7-4[4:1],,,1-5[4:1],,,8b,,
{8}4/7,,3/5,,,8/6,1/7,,
{4}2^5[4:1],,2h[2:1],1^6[4:1],
{4},1^4[4:1],,8-4[2:1],
{4},1-5[2:1],,2-6[2:1],
{8},,8,,,1,1b,,
{16}7h[2:1],,,,6,,,,1,,,2,,,3,,
{16}3h[4:1],,4,,2h[4:1],,,,1,,,8,,,7,,
{16}7h[4:1],,5,,3h[4:1],,,,1,,,8h[16:3],,,6,,
{8}7/2,,,8b/2b,4/6,,7b/3b,,
{2}1-5[2:1],1^6[2:1],
{2}8^3[2:1],4-8[2:1],
{8}6-2[2:1],6,,,8-4[2:1],8,,,
{8}2h[4:1],,,2h[4:1]/7h[4:1],,,8b/3-8[8:1],,
{16}1h[8:5],,,,7,,,6,,,5^8[4:1],,3,,1b,,
{2}1-5[2:1],7-4[2:1],
{16}1h[2:1],,,,,,,,8,,,7,,,6b,,
{2}5-1[2:1],3-8[2:1],
{16}7h[2:1],,,,,,,,6,,,7,,,8b,,
{2}1-5[2:1],7-4[2:1],
{2}2h[2:1],7h[2:1],
{8}1,,6/8,7b/2b,,,8b/6b,,
{8}1-6[4:1],,,8-4[4:1],,,2h[4:1],,
{8}8-3[4:1],,,1-5[4:1],,,7h[4:1],,
{8}6-1[4:1],,,8-4[4:1],,,1h[4:1],,
{8}4^7[4:1],,2,2,,8,8b,,
{4}2^5[4:1],,2h[2:1],1^6[4:1],
{4},1^4[4:1],,8-4[2:1],
{4},1-5[2:1],,2-6[2:1],
{8},,8b,,,1,8b/3-8[8:1],,
{16}1h[8:5],,,,7,,,6,,,5^8[4:1],,3,,1b,,
{2}1-5[2:1],7-4[2:1],
{16}1h[2:1],,,,,,,,8,,,7,,,6b,,
{2}5-1[2:1],3-8[2:1],
{16}7h[2:1],,,,,,,,6,,,7,,,8b,,
{2}1-5[2:1],7-4[2:1],
{2}2h[2:1],7h[2:1],
{8}1,,8/6,1b/8b,,,2b/7b,
E
