&title=Lionheart
&artist=Masayoshi Minoshima
&wholebpm=132
&demo_seek=52.72
&demo_len=14.28
&lv_1=3
&lv_2=6
&lv_3=8
&lv_4=11
&lv_5=13
&des_4=はっぴー
&des_5=チャン@DP皆伝
&inote_1=(132.0){1},1,
{1}1,
{1}8,
{1}8,
{1}7,
{1}8,
{1}1,
{1}2,
{1}2,
{1}1,
{1}8,
{1}8/1,
{4},2,,2,
{4},3,,3,
{4},4,,4,
{4},5,,,
{1}6h[2:1],
{1}7h[2:1],
{1}8h[2:1],
{1}1h[2:1],
{1}1-4[4:3],,
{1}8-5[4:3],,
{1}7-2[4:3],,
{1}3-6[4:3],,
{4}6,6,
{2}6b,{1},
{4}7,7,
{2}7b,{1},
{4}8,8,
{2}8b,{1},
{4}1,1,
{2}1b,{1},
{4}8,8,8b,,
{4}7,7,7b,,
{4}6,6,6b,,
{4}5,5,5b,,
{4}4,4,4b,,
{4}3,3,3b,,
{4}2,2,2b,,
{4}1,1,1b,
E
&inote_2=(132.0){1},,,,,
{2}1,1,
{2}2,2,
{2}3,3,
{2}4,4,
{4}3,3,2,2,
{4}1,1,8,8,
{1}7h[4:3],
{1}7b,
{4}8,8,1,,
{4}8,8,7,7,
{4}6,6,5,,
{4}7,7,8,1/8,
{4}2,2,3,,
{4}2,2,1,1,
{4}8,8,7,,
{4}8,8,1/2,3/2,
{4}1,1,8,8,
{4}7,7,6,4/5,
{4}6,6,7,7,
{4}8,8,1,1/8,
{4}8,8,7,7,
{4}6,6,5,3/4,
{4}5,6,7,8,
{8}1,1,1,,2,2,2,,
{4}1h[4:1],8h[2:1],,,
{4}1h[4:1],3h[2:1],,,
{4}2h[4:1],1h[2:1],,,
{4}8h[4:1],7h[2:1],,,
{4}8h[4:1],1h[2:1],,,
{4}1h[4:1],3h[2:1],,,
{4}2h[4:1],1h[2:1],,,
{4}2,3,4,5,
{1}6-3[4:1],
{1}2-7[4:1],
{1}8-5[4:1],
{1}1-4[4:1],
{4}8,8,6,6,
{4}8,8,2,2,
{4}4,4,6,6,
{4}5,4,3,2,
{1}1b,
E
&inote_3=(132.0){1},,,,,
{4}1,1,2,2,
{4}3,3,4,4,
{4}5,5,6,6,
{4}7,7,8,8,
{8}1,1,1,,2,2,2,,
{8}3,3,3,,4,4,4,,
{4}5,6,7,8,
{1}1h[4:3],
{4}1,2,1,8/1,
{4}8,7,8,8/1,
{4}2,3,4,3/2,
{4}1,8,7,8/1,
{4}7,6,5,7/6,
{4}8,1,2,8/1,
{4}2,3,4,6/5,
{4}7,8,1,3/2,
{4}1h[4:3],8,7,8,
{4}1h[4:3],2,3,2,
{4}8h[4:3],7,6,7,
{4}8h[4:3],1,2,1b,
{4}2h[4:3],3,4,5,
{4}2h[4:3],1,8,7,
{4}6h[4:3],5,4,5,
{4}6/7,1/8,2/3,8b/1b,
{16}2h[4:1],,,,3,,,,2,,,2,,,,,
{16}8h[4:1],,,,7,,,,8,,,8,,,,,
{16}1h[4:1],,,,2,,,,1,,,1,,,,,
{4}2,4,6,8b,
{16}7h[4:1],,,,6,,,,7,,,7,,,,,
{16}1h[4:1],,,,2,,,,1,,,1,,,,,
{16}8h[4:1],,,,7,,,,8,,,8,,,,,
{4}1,3,5,8/7,
{16}2/1^6[8:1],,,,,,,,5,,,5,,,,,
{16}3/4^7[8:1],,,,,,,,8,,,8,,,,,
{16}7/8^3[8:1],,,,,,,,4,,,4,,,,,
{16}6/5^2[8:1],,,,,,,,1,,,1,,,,,
{4}8,7,8,1/8,
{4}1,2,1,1/8,
{4}8,6,4,2/1,
{4}3,5,7,1-4[2:1],,,,
E
&inote_4=(132.0){1},,,,,
{4}1,2,3,4,
{4}5,6,7,8,
{4}8,7,6,5,
{4}4,3,2,1,
{8}1,1,2,2,3,3,4,4,
{8}5,5,6,6,7,7,8,8,
{8}8,7,6,5,4,3,2,1,
{8}1^6[4:1],,2b,,5-2[8:1],5,,,
{16}6,,6,,8,,8,,7,,5,5,,,4,,
{16}3,,3,,1,,1,,2,,4,4,,,,,
{16}5,,5,,1,,1,,8,,7,7,,,6,,
{16}2,,2,,3,,3,,4,,5,5b,,,,,
{16}4,,4,,7,,7,,6,,5,5,,,4,,
{16}8,,8,,1,,1,,2,,3,3,,,,,
{16}4,,4,,8,,8,,2,,3,3,,,4,,
{8}5,5,6,6,7,8,1,2b,
{16}7h[4:1],,,,6,,,,2h[16:3],,,3,,,7h[8:3],,
{16}6,,,,
{294}6,,,,,,,,,,,,,,,,,,,,,,,,,,,,,,,,,,,,,,,,,,,,,,,,,,,,,,,,,,,,,,,,,,,,,,,,,
{955}8^3[10000:1267],,,,,,,,,,,,,,,,,,,,,,,,,,,,,,,,,,,,,,,,,,,,,,,,,,,,,,,,,,,,,,,,,,,,,,,,,,,,,,,,,,,,,,,,,,,,,,,,,,,,,,,,,,,,,,,,,,,,,,,,,
{8}8b,,,
{16}2h[4:1],,,,3,,,,7h[16:3],,,6,,,2h[8:3],,
{8}3,,3,,1^6[8:1],1b,,,
{16}8/6,,,,7/5,,,,1/3,,,2/4,,,6/5,,
{8}4/3,,5/2,,1-6[10000:1267]/8-3[8:1],1/8,,,
{8}6,7,8,1,2,3,4,5,
{8}1/2,8/3,7/4,5/6,8/7,1/6,5/2,3b/4b,
{8}6,7-4[4:1],8,1,2,3,,4,
{8}3,2-5[4:1],1,8,7,6,,6,
{8}7,8^5[4:1],1,2,3,4,,3,
{8}2,1^4[4:1],8,7,6,5,,8,
{8}8/7,7,7/6,6,6/5,5,,4,
{8}4/3,3,2/3,2,1/2,1,,1,
{8}2/1,2,2/3,3,3/4,4,,7,
{8}6/7,6,5/6,1,1/2,2,3/2,3b,
{16}8h[4:1],,,,6h[4:1],,,,1h[16:3],,,2h[16:3],,,3,,
{16}1h[4:1],,,,3h[4:1],,,,8h[16:3],,,7h[16:3],,,6,,
{16}7h[4:1],,,,5h[4:1],,,,2h[16:3],,,3h[16:3],,,4,,
{16}2h[4:1],,,,4h[4:1],,,,7h[16:3],,,6h[16:3],,,5b,,
{16}2/1^6[4:1],,,,2,,,,3,,,3,,,3,,
{16}7/8^3[4:1],,,,7,,,,6,,,6,,,6,,
{16}2/1^6[4:1],,,,2,,,,3,,,4,,,5,,
{16}7/8^3[4:1],,,,7,,,,6,,,5,,,4,,
{1}6b/3b,
E
&inote_5=(132.0){1},
{16}5/4h[8:7],,5,,6,,6,,7,,,7,,,8,,
{16}8/1h[8:7],,8,,7,,7,,6,,,6,,,5,,
{16}4/5h[8:7],,4,,3,,3,,2,,,2,,,1,,
{16}1/8h[8:7],,1,,2,,2,,3,,,3,,,4,,
{16}5/4,,5,,6/4,,6,,7/4,,,7/4,,,8/4,,
{16}8/1,,8,,7/1,,7,,6/1,,,6/1,,,5/1,,
{16}4/5,,4,,3/5,,3,,2/5,,,2/5,,,1/5,,
{16}1/8,,1,,2/8,,2,,3/8,,,3/8,,,4/8,,
{8}5/4,6/4,7/4,8/4,5/4,6/4,7/4,8/4,
{8}4/5,3/5,2/5,1/5,4/5,3/5,2/5,1/5,
{16}5,4,5,4,6,3,6,3,7,2,7,2,8,1,8,1,
{4}8-5[8:3],2-5[8:1],,,
{16}2-5[4:1],,2,,1,,1,,8,,7,6,,6,7,,
{16}6,,6,,5,,5,,4,,3,2,,,,,
{16}7-4[4:1],,7,,8,,8,,1,,2,3,,3,2,,
{16}3,,3,,4,,4,,5,,6,7,,,,,
{16}3-6[4:1],3,2,,2,,1,,8,8,1,8,,8,1,,
{16}7,,7,,6,6,5,,4,4,5,4,,,,,
{16}6-3[4:1],6,7,,7,,8,,1,1,8,1,,1,8,,
{16}2,,2,,3,3,4,,5b,,6b,,7b,,8b,,
{16}2-5[4:1],2,1,,1,,1,,8,,7,6,,6,7,,
{16}6-3[4:1],6,5,,5,,5,,4,,3,2,,,,,
{16}7-4[4:1],7,8,,8,,8,,1,,2,3,,3,2,,
{16}3-6[4:1],3,4,,4,,4,,5,,6,7,,,,,
{16}3-6[4:1],3,2,,2,,1,,8,8,1,8,,8,1,,
{16}7-3[16:3],7,6,,6,,5,,4,4,5,4,,,,,
{16}6-3[4:1],6,7,,7,,8,,1,1,8,1,,1,8,,
{16}4b,4,5,5,3b,3,6,6,2b,2,7,7,1b,1,8,8,
{8}3/2-7[8:1],3,4,4,5b/1-6[8:1],5,,,
{8}4/3-8[8:1],4,5,5,6b/2-7[8:1],6,,,
{8}6/7-2[8:1],6,5,5,4b/8-3[8:1],4,,,
{8}5/6-1[8:1],5,4,4,3b/7-2[8:1],3,,,
{16}3/2-7[8:1],,3,,4,,4,,5b/1-6[8:1],,5,4,,4,5,,
{16}4/3-8[8:1],,4,,5,,5,,6b/2-7[8:1],,6,5,,5,6,,
{16}6/7-2[8:1],,6,,5,,5,,4b/8-3[8:1],,4,5,,5,4,,
{8}5/6-1[8:1],5,4,4,3b/7-2[8:1],2,1,8,
{4}3-8[8:1],6-1[8:1],4-7[8:1],5-2[8:1],
{4}4-1[8:1],6-3[8:1],5-8[8:1],7-2[8:1],
{4}6-1[8:1],3-8[8:1],5-2[8:1],4-7[8:1],
{4}5-8[8:1],3-6[8:1],4-1[8:1],,
{8}3-8[8:1],3,6-1[8:1],6,4-7[8:1],4,5-2[8:1],5,
{8}4-1[8:1],4,6-3[8:1],6,5-8[8:1],5,7-2[8:1],7,
{8}6-1[8:1],6,3-8[8:1],3,5-2[8:1],5,7-3[8:1],,
{8}3-6[8:1],6-2[8:1],2-7[8:1],7-4[8:1],4-1[8:1],,,,
E
