&title=Get Off of My Way
&artist=MAN WITH A MISSION [PV]
&wholebpm=135.0
&lv_1=2
&lv_2=5
&lv_3=6
&lv_4=10+
&lv_5=10+
&inote_1=(135.0){1},,,,,
{1}2,,
{1}3,,
{1}2,,
{1}1,,
{1}8,,
{1}7,
{1}8b,
{1}1,
{1}1,
{1}2,
{1}2,
{1}1,
{1}1,
{1}8,
{1}8,
{1}7,,
{1}6,,
{1}7,,
{1}8,,
{4}1,1,,,{1},
{4}2,2,,,{1},
{4}1,1,,,{1},
{4}8,8,,,{1},
{1}7-2[2:1],,
{1}2-7[2:1],,
{1}6-3[2:1],,
{1}3-6[2:1],,
{1}7,,
{1}6,,
{1}7,,
{1}8,,
{4}1,1,,,{1},
{1}2h[4:3],,
{2}1,1,
{2}8,8,
{2}7,7,
{1}7b,
{1}8-5[2:1],,
{1}5-8[2:1],,
{2}1,1,
{2}2,2,
{2}1,1,
{4}8h[4:3],,,,
E
&inote_2=(135.0){1},,,,,
{1}7,
{1}8,
{1}1,
{1}2,
{2}2,2,
{2}1,1,
{2}8,8,
{2}7,7,
{4}7,7,,,
{4}8,8,,,
{4}1,1,,,
{1}2b,
{4}3,3,,,
{4}4,4,,,
{4}5,5,,,
{4}6,6,,,
{4}7/8,8/7,,,
{4}1/2,2/1,,,
{4}7/8,8/7,,,
{4}2/1,2/1,,,
{4}2,2,,,
{2}8,7,
{4}7,7,,,
{2}1,2,
{4}2,1,,,
{2}7,7,
{4}7,8,,,
{2}2,2,
{2}3h[4:1],3,
{4}4,4,4,,
{2}6h[4:1],6,
{4}5,5,5,,
{2}5h[4:1],5,
{4}6,6,7,,
{2}4h[4:1],4,
{4}3,3,2,,
{4}1/2,2/1,2/1,,
{4}7/8,8/7,8/7,,
{4}2/1,1/2,2/1,,
{4}7/8,8/7,8/7,,
{4}6,6,7,7,
{4}8,8,1,1,
{4}2,2,3,3,
{4}2,,1/8,1b/8b,
{1}1-5[2:1],
{4},,7,7,
{1}8-4[2:1],
{4},,5,5,
{1}5-1[2:1],
{4},,3,3,
{1}4-8[2:1],
{4},,1,1,
{4}1,1/2,,,
{4}7,7,7,8/7,
{2}7h[4:1]/8h[4:1],8h[4:1]/1h[4:1],
{4}2h[4:1]/1h[4:1],,1,8,
{1}7-3[2:1],
{4},,2,2,
{1}2-6[2:1],
{4},,7,8b,
{4}7,7,6,6,
{4}5,5,5/4,5/4,
{4}3,3,2,2,
{4}1,1,1/8,8/1,
{4}7,8,7,8,
{4}2,1,2,1,
{4}7,2,7,2,
{4}8,1,8/1,8b/1b,
E
&inote_3=(135.0){1},2,
{1}1,
{1}8,
{1}7^2[2:1],
{1}6h[2:1],
{1}5h[2:1],
{1}4h[2:1],
{1}3h[2:1],
{4}7,8,1,,
{4}3,4,5,,
{4}2,1,8,,
{4}6,5,4,3,
{4}8,1,2,,
{4}4,5,6,,
{4}7,8,1,2,
{1}2b,
{4}1,2,1,2,
{4}3,4,3,3,
{4}8,7,8,7,
{4}6,5,6,5,
{4}7/8,8/7,,7/8,
{4},5/6,,5/6,
{4}3/4,4/3,,4/3,
{4},2/1,,1/2,
{4}7,7,7,,
{4}1,2,3,4,
{4}2,2,2,,
{4}8,7,6,5,
{4}2,1,8,,
{4}6,5,4,3,
{4}7,8,1,,
{4}3,4,5,6,
{4}6h[4:1],5,5,,
{4}4,3,2,1,
{4}3h[4:1],4,4,,
{4}5,6,7,8,
{4}4h[1607:404],5,5,,
{4}4,2,8,6,
{4}5h[4:1],4,4,,
{4}5,7,1,3,
{4}1/2,2/1,8/7,7/8,
{4}1/2,8/7,2/1,7/8,
{4}4/3,3/4,6/5,5/6,
{4}3/4,6/5,5/3,6/4,
{4}2h[4:1],3,7h[4:1],6,
{4}1h[4:1],8,4/5,4/5,
{4}2h[4:1],1,7h[4:1],6,
{4}4h[4:1],5,6/3,1b/8b,
{1}8-4[2:1],
{4}3,4,5,6,
{1}1-5[2:1],
{4}6,5,4,3,
{1}3-6[2:1],
{4}7,8,1,2,
{1}7-2[2:1],
{4}3,4,5,6,
{4}1,7/8,,,
{4}6,4,2,2/1,
{2}6h[4:1]/8h[4:1],4h[4:1]/6h[4:1],
{4}4h[4:1]/2h[4:1],,1/7,8/2,
{1}7-3[2:1],
{4}2,1,8,7,
{1}2-6[2:1],
{4}7,8,1,2,
{4}2h[4:1],3,7h[4:1],6,
{8}1h[4:1],,8,,4,5,4,5,
{4}3h[1999:500],2,1h[4:1],8,
{4}7h[4:1],6,3,8b/1b,
{2}8-5[8:1],1-4[8:1],
{8}5h[4:1],,4,,8,1,8,1,
{2}2-7[8:1],6-3[8:1],
{4}6,3,7/1,2b/8b,
E
&inote_4=(135.0){1},3-8[2:1],,
{1}1-5[2:1],,
{4}4-8[2:1],1,2,3,
{4}4,5,6,7,
{4}8-4[2:1],3,2,1,
{4}8,7,6,5,
{4}2/7,3,6,1,
{4}4,7,2,5,
{4}3/6,4,1,6,
{4}3,8,5,2,
{4}1/8,2,3,4,
{4}5,6,7,8,
{4}6/7,5,4,3,
{1}2b,
{16}8,7,,7,6,,6,5,,5,4,,4,3,,3,
{16}2,,2,1,,1,8,,7,,6,,7,,8b,,
{16}8,1,,1,2,,2,3,,3,4,,4,5,,5,
{16}6,,6,,5,,4,3,,3,2,,1b,,,,
{16}8,7,,7,6,,6,5,,5,4,,4,3,,3,
{16}2,,2,1,,1,8,,7,,6,,7,,8b,,
{16}8,1,,1,2,,2,3,,3,4,,4,5,,5,
{16}6,,6,,5,,4,3,,3,2,,1b,,,,
{16}8h[4:1],,,,7,,,,1,,,2,,3,3,,
{16},,2h[8:1],,1,,,8,,7,7,,6,,5,,
{16}4h[4:1],,,,3,,,,4,,,5,,6,,6,
{16},5,5,,4,,3,,5,,6,,7,,8,,
{16}1h[4:1],,,,2,,,,8,,,7,,6,6,,
{16},,7h[8:1],,8,,,1,,2,2,,3,,4,,
{16}5h[4:1],,,,6,,,,5,,,4,,3,,3,
{16},4,4,,5,,6,,4,,3,,2,,1,,
{16}8h[4:1],,,,7,,,,1,,,2,,3,3,,
{16},,2h[8:1],,1,,,8,,7,7,,8,,1,,
{16}2h[4:1],,,,3,,,,1,,,8,,7,,7,
{16},8,8,,1,,2,,8,,7,,6,,5,,
{16}6h[4:1],,,,7,,,,1,,,2,,3,3,,
{16},,2h[8:1],,1,,,8,,7,7,,8,,1,,
{16}2h[4:1],,,,3,,,,1,,,8,,7,,6,
{16},7,7,,8,,1,,8,,6,,4,,2b/3b,,
{16}1,2,,2,3,,3,4,,4,5,,5,6,,6,
{16}7,,7,8,,8,1,,2,,3,,2,,1b,,
{16}1,8,,8,7,,7,6,,6,5,,5,4,,4,
{16}3,,3,,4,,5,6,,6,7,,8b,,,,
{16}1,2,,2,3,,3,4,,4,5,,5,6,,6,
{16}7,,7,8,,8,1,,2,,3,,2,,1b,,
{16}1,8,,8,7,,7,6,,6,5,,5,4,,4,
{16}3,,3,,4,,5,6,,6,7,,8b,,,,
{16}1-5[8:1],,,,,,,,8,,,7,,6,6,,
{16},,7h[8:1],,8,,,1,,2,2,,1,,8,,
{16}7-4[8:1],,,,,,,,1,,,3,,4,,5,
{16},4,4,,3,,2,,4,,5,,6,,7,,
{16}8-5[8:1],,,,,,,,8,,,7,,6,6,,
{16},,8h[8:1],,1,,,2,,3,3,,1,,7,,
{16}6<2[8:1],,,,,,,,2,,,3,,4,,3,
{16},2,2,,1,,7/8,,1,1,,2,,4,,6,
{16}7h[4:1],,,,8b,,,,1,,,3,,4,4,,
{16},,2h[8:1],,1,,,8,,7,7,,8,,1,,
{16}2,2,,1,1h[16:3],,,8,,7,,6,5h[16:3],,,6,
{16},7,7,,1,,2,,8,,7,,6,,5,,
{16}6h[4:1],,,,7,,,,8,,,1,,2,2,,
{16},,1h[8:1],,8,,,6,,5,5,,6,,8,,
{16}1h[1000:251],,,,2,,,,1,,,7,,6,,5,
{16},6,6,,7,,8,,6,,4,,2,,8b/1b,,
{16}2,3,,3,4,,4,5,,5,6,,6,7,,7,
{16}8,,8,1,,1,2,,3,,4,,3,,2b,,
{16}2,1,,1,8,,8,7,,7,6,,6,5,,5,
{16}4,,4,,5,,6,7,,7,8,,1b,,,,
{16}2,3,,3,4,,4,5,,5,6,,6,7,,7,
{16}8,,8,1,,1,2,,3,,4,,3,,2b,,
{16}2,1,,1,8,,8,7,,7,6,,6,5,,5,
{16}4,,4,,5,,6,7,,7,8,,1b,
E
&inote_5=
(135.0){1},
{16}4/5,,,,1/8,,,,1,8,,3/6,,4,5,,
{16},,8,,7,6,,3,,2,2,,1,,8,,
{16}1,,,,1/2,,,,5,4,,6,,8,,2,
{16},4,5,,4,,3,,2,,1,,8,,6/3,,
{16}3/4,,,,5/6,,,,1,8,,2/7,,4,5,,
{16},,3,,2,1,,1/8,,8,7,,3/6,,4/5,,
{16}1/3,,,,5/7,,,,1,7,,2/6,,3/5,,4,
{16},4,5,,6,,8,,2,,4,,5,,2/7,,
{16}4/5,,,,1/8,,,,1,8,,3/6,,4,5,,
{16},,8,,7,6,,3,,2,2,,1,,8,,
{16}1,,,,1/2,,,,5,4,,6,,8,,2,
{16},4,5,,4,,3,,2,,1,,8,,6/3,,
{16}3/4,,,,5/6,,,,1,8,,2/7,,4,5,,
{16},,3,,2,1,,1/8,,8,7,,3/6,,4/5,,
{16}1/3,,,,5/7,,,,1,7,,2/6,,3,4,,
{8}4/1,,,,,4/5,2/7,,
{16}2,1,,2,1,,8,7,,8,7,,3,4,,3,
{16}4,,6,5,,6,5,,4,,5,,1,8,1,,
{16}1,2,,8,7,,2,3,,7,6,,1,2,,8,
{16}7,,3,,6,,4,5,,,2/7,,
{1000}7b,
{357}2b,,,,,,,,,,,,,,,,,,,,,,,,,,,,,,,,,,,,,,,,,,,,,,,,,,,,,,,,,,,,,,,,,,,,,,,,,,,,,,,,,,,,,,,,,
{16}1,2,,2,1,,7,8,,8,7,,1,2,,8,
{16}7,,1,2,,8,7,,7,,8,,2,1,2,,
{16}3,4,,6,5,,3,4,,4,3,,5,6,,6,
{16}5,,4,,3,,2,1,,,8,,4b/5b,,,,
{16}1-4[16:1]/8-5[16:1],,,,,,,,3,4,,6,,8,1,,
{16},,3,,4,5,,3,,1,8,,6,,7,,
{16}1/2,,,,7/8,,,,4,5,,3,,2,,1,
{16},8,7,,6,,5,,2^7[16:1],,6<3[16:1],,,,,,
{16}2-5[16:1],,,,,,,,8,1,,2,,3,4,,
{16},,6,,4,5,,3,,2,1,,8,,7,,
{16}4/3,,,,5/6,,,,8,1,,2,,4,,6,
{16},4,5,,7,,1,,2-5[16:1],,7-3[16:1],,,,,,
{16}2,,,,1/3,,,,6,5,,7,,1,8,,
{16},,2,,4,3,,5,,4,5,,6,,7,,
{16}8/7,,,,3/5,,,,6,5,,3,,1,,8,
{16},7,6,,4,,2,,1-5[16:1],,7-3[16:1],,,,,,
{16}3/1,,,,6/2,,,,4,5,,3,,1,8,,
{16},,6,,4,5,,3,,1,8,,2,,4,,
{16}5/6,,,,4/3,,,,3,2,,1,,8,,7,
{16},7,6,,5,,4,,3-6[16:1],,8-5[16:1],,,,,,
{16}1,2,,1,2/3,,8,7,,8,7,,2/3,4,,3,
{16}4,,6,5,7,6,5,,1,,2,,4/3,5,6,,
{16}1,2,,8,4/7,,1,2,,8,7,,1/5,2,,8,
{16}7,,1,,2/4,,4,5,,,4/2,,7/5,,,,
{16}8,7,,8,7/4,,1,2,,1,2,,3/5,4,,3,
{16}4,,6,5,7,6,5,,3,,6,,4/6,5,4,,
{16}1,2,,8,7/4,,1,2,,8,7,,1/4,2,,8,
{16}7,,1,,3/4,,5,6,,,8,,2b,,,,
{16}1-5[16:1]/8-4[16:1],,,,,,,,4,5,,3,,2,1,,
{16},,8,,7,7-2[16:1],,6,,4,5,,3,,1,,
{16}2/7,,,,5/4,,,,7,6,,8,,1,,2,
{16},2,3,,5,,4,,2^7[16:1],,6<3[16:1],,,,,,
{16}2-5[16:1],,,,,,,,7,6,,4,,2,3,,
{16},,2,,1,8-4[16:1],,7,,5,4,,6,,3,,
{16}1/2^5[16:1],,,,,,,,1,8,,3,,6,,2,
{16},5,4,,7,,1,,8,1,,4/3,,4/3,,3/4,
{16}6,,,,1/3,,,,2,3,,5,,7,6,,
{16},,5,,4,3,,2,,1,8,,7,,6,,
{16}2,1/2,,7,8/7,,,3,,6,,4,5,,,3,
{16},1,8,,7,,6,,1-5[16:1],,7-3[16:1],,,,,,
{16}1/3,,,,6/2,,,,8,7,,5,,3,4,,
{16},,1,,2,2-5[16:1],,8,,7,6,,5,,4,,
{16}7/2,,,,5/4,,,,8,1,,7,,6,,5,
{16},4,5,,3,,2,,3-6[16:1],,8-5[16:1],,,,,,
{16}2,1,,2,1,,8,7,,8,7,,3,4,,3,
{16}4,,6,5,,6,5,,4,,5,,1,8,1,,
{16}1,2,,8,7,,2,3,,7,6,,1,2,,8,
{16}7,,3,,6,,4,5,,,2/7,,
{1000}7b,
{357}2b,,,,,,,,,,,,,,,,,,,,,,,,,,,,,,,,,,,,,,,,,,,,,,,,,,,,,,,,,,,,,,,,,,,,,,,,,,,,,,,,,,,,,,,,,
{16}1,2,,2,1,,7,8,,8,7,,1,2,,8,
{16}7,,1,2,,8,7,,7,,8,,2,1,2,,
{16}3,4,,6,5,,3,4,,4,3,,5,6,,6,
{16}5,,4,,3,,2,1,,,8,,4b/5b,
E
