&title=Fragrance
&artist=Tsukasa(Arte Refact)
&wholebpm=180
&demo_seek=21
&demo_len=12.3
&lv_1=4
&lv_2=6
&lv_3=9
&lv_4=12+
&lv_5=14
&lv_6=14+
&des_4=ニャイン
&des_5=チャン@DP皆伝
&des_6=玉子豆腐
&inote_1=(180.0){1},3,,
{1}2,,
{1}1,,
{1}8,,
{1}8/1,,
{1}7/2,,
{1}6/3,,
{1}5/4,,
{2}3,3,
{2}2,2,
{2}1,1,
{4}8,8,8,,
{2}7,7,
{2}8,8,
{2}1,1,
{4}2,2,2,,
{2}3,3,
{2}4,4,
{2}5,5,
{4}6,6,6,,
{2}7,6,
{2}5,4,
{2}3,2,
{4}1,1,8,,
{1}1-5[4:3],,
{1}8-4[4:3],,
{1}2-6[4:3],,
{1}7-3[4:3],,
{1}2h[2:1],
{2}1,1,
{1}8h[2:1],
{4}7,7,7,,
{1}6h[2:1],
{2}5,5,
{1}4h[2:1],
{4}3,3,3,,
{2}2,1b,
{4}8,8,8,,
{2}7,7,
{4}6,6,6,,
{2}5,5,
{4}6,6,6,,
{2}7,7,
{4}7,7,7,7-3[1:1],{1},,
E
&inote_2=(180.0){1},,,,,,,,,
{1}1,
{1}8,
{1}7,
{1}6,
{1}8,
{1}1,
{1}2,
{1}3b,
{4},2,,2,
{4},8,,8,
{4},6,,6,
{4},5,,5,
{4},7,,7,
{4},1,,1,
{4},3,,3,
{4},4,,4,
{1}2h[8:3],
{8},,8,8,,7,,,
{1}6h[8:3],
{8},,5,5,,4,,,
{1}5h[8:3],
{8},,6,6,,7,,,
{1}8h[8:3],
{8},,1,1,,2,,,
{1}3-7[4:1],
{8},,7,,,7,,,
{1}8-5[4:1],
{8},,5,,,5,,,
{1}4-1[4:1],
{8},,1,,,1,,,
{1}2-7[4:1],
{8},,7,,,7,,,
{4},6,,6,
{4},5,,5,
{4},7,,7,
{4},8,,8,
{4},2,,2,
{4},3,,3,
{4},1,,1,
{4},8,,8b,
{1}7-2[4:1],
{8},,2,2,,3,,,
{1}1h[8:3],
{8},,8,8,,7,,,
{1}8h[8:3],
{8},,1,1,,2,,,
{1}3h[8:3],
{8},,1,1,,8,,,
{4}7-3[2:1],,,,
E
&inote_3=(180.0){1},,,,
{8},2,2,,1,1b,,,{1},,,,
{8}8h[8:3],,,7,,7,,,
{8}8h[8:3],,,1,,1,,,
{8}2h[8:3],,,3,,3,,,
{1}2^7[4:1],
{8}6h[8:3],,,5,,5,,,
{8}6h[8:3],,,7,,7,,,
{8}8h[8:3],,,1,,1,,,
{1}3-8[4:1],
{8}8h[8:3],,,7,,7,,,
{8},,1,1,,2,,3,
{8}3h[8:3],,,4,,4,,,
{8},,2,2,,1,,,
{8}8h[8:3],,,7,,7,,,
{8},,8,8,,1,,2,
{8}2h[8:3],,,3,,3,,,
{8},,2,2,,1,,,
{8}8h[4:1],,7,7h[4:1],,6,,6,
{8},,8,8,,1,,2,
{8}2h[4:1],,3,3h[4:1],,4,,4,
{8},,2,2,,1,,8,
{8}8h[4:1],,7,7h[4:1],,6,,6,
{8},,1,1,,2,,3,
{8}3h[4:1],,4,4h[4:1],,5,,5,
{8},,3,3,,2b,,,
{8}1h[8:3],,,8,,7,,6,{1},
{8}1h[8:3],,,2,,3,,4,{1},
{8}5h[8:3],,,4,,3,,2,{1},
{8}5h[8:3],,,6,,7,,8,{1},
{4}1-5[8:1],,8,7,
{8}6h[8:3],,,5h[8:3],,,4,4h[8:15],{1},,
{4}4-8[8:1],,1,2,
{8}3h[8:3],,,4h[8:3],,,5,5h[8:7],
{8},,,,,,6,6h[8:7],{1},
{4}4h[4:1]/8-4[8:1],,1,2,
{8}3h[8:3],,,4h[8:3],,,5,5h[8:15],{1},,
{8}6-1[8:1],,,2h[8:3],,,3,3h[8:7],
{8},,,,,,2,2h[4:3],
{8},,,,,1,
{415}1,,,,,,,,,,,,,,,,,,,,,,,,,,,,,,,,,,,,,,,,,,,,,,,,,,,,
{417}8h[834:521],,,,,,,,,,,,,,,,,,,,,,,,,,,,,,,,,,,,,,,,,,,,,,,,,,,,
{2},
{8}6-2[8:1],,,,
E
&inote_4=(180.0){1},,,,
{8},8,8,,7,6-1[4:1],,,{1},,,
{8},,2,3,4,3,2,1,
{8}8h[8:7],,,7,,7,,6,
{8}6h[8:7],,,5,,5,,4,
{8}4h[8:7],,,3,,3,,2,
{8},1,1,,8,8,,,
{8}1h[8:7],,,2,,2,,3,
{8}3h[8:7],,,4,,4,,5,
{8}5h[8:7],,,6,,6,,7,
{8},8,7,8,1,2,1,8b,
{8}7h[4:1],,6,7h[4:1],,8,,1,
{8},2,3,2,,1,,8,
{8}8h[4:1],,7,7h[4:1],,6,,7,
{8},8,1,2,,3,,2,
{8}2h[4:1],,1,2h[4:1],,3,,4,
{8},5,6,5,,4,,3,
{8}3h[4:1],,2,2h[4:1],,1,,8,
{8},7,6,7,,8,,,
{8}1,2,3,1,8,7,6,5h[4:1],
{8},4,3,2,3,4,5,6h[4:1],
{8},7,8,1h[4:1],,8,6,4h[4:1],
{16},,5,6,7,,7h[8:1],,6,,5,,4,,3,,
{8}1,2,3,1,8,7,6,5h[4:1],
{8},4,3,2,3,4,5,6h[4:1],
{8},7,8,1h[4:1],,8,6,4h[4:1],
{16},,5,6,7,,7h[8:1],,6,,4,,2,,8,,
{8}7h[4:1],6,5,6h[4:1],,7,,8h[4:1],
{8},1,2,1,8,7,6,5,
{8}4h[4:1],3,2,3h[4:1],,4,,5h[4:1],
{8},6,7,6,5,4,3,2,
{8}1h[4:1],8,7,8h[4:1],,1,,1h[4:1],
{8},2,3,2,1,8,7,6,
{8}5h[4:1],4,3,5h[4:1],,6,,7-4[8:1],
{8},1,1,2/3-8[8:1],,1,1b,,
{4}7^4[8:1],,5,3,
{8}1h[8:3],,,8h[8:3],,,7,7,
{16}8,,1,2,1,,8h[4:1],,,,7,,,,6-1[8:1],,
{16},,,,2,,2,3,4,,6,,4,,2,,
{4}2^5[8:1],,7,1,
{8}3h[8:3],,,5h[8:3],,,7,7,
{16}5,,4,3,2,,5h[8:1],,6,7,8,,8,,7h[4:1],,
{16},,6,,4,,2,3,4,,6,,8,,1,,
{4}8^3[8:1],,1,7,
{8}5h[8:3],,,3h[8:3],,,1,1,
{16}3,,4,5,4,,3h[2:1],,,,2,,,,8-4[8:1],,
{8},,1,2-6[8:1],2,1,8,7,
{8}6-2[8:1],,,1,,,8,8h[8:3],
{16},,,,6,,4h[4:1],,,,5,6,7,,7h[4:1],,
{8},6,4,2h[4:1],,3,5,7h[4:1],
{8},8,1,2,1,8,7-4[2:1]/8-3[2:1],,,,,,,
E
&inote_5=(180.0){1},
{8}3,2,1,,3,4,,6,
{8}5,,7,8,,
{57}2,,,,,,,
{739}3,,,,,,,,,,,,,,,,,,,,,,,,,,,,,,,,,,,,,,,,,,,,,,,,,,,,,,,,,,,,,,,,,,,,,,,,,,,,,,,,,,,,,,,,,,,,,,
{8}4,
{8}6,7,8,,6,5,,3,
{8}4,7,2/8,1,7,8/2,3,4,
{8}3,2,1,,3,4,,6,
{8}5,,7,8,,
{57}2,,,,,,,
{739}3,,,,,,,,,,,,,,,,,,,,,,,,,,,,,,,,,,,,,,,,,,,,,,,,,,,,,,,,,,,,,,,,,,,,,,,,,,,,,,,,,,,,,,,,,,,,,,
{8}4,
{8}6,7,8,,6/1,5,,3/8,
{8}4,7,8/2,8/1,7,8/2,7/3,8/4,
{16}8/1,,7,,2,,8,1,,1,8,,2,,8,,
{16}3,,7,,4,,6,3,,3,6,,4,,6,,
{16}3,,4,,3,,6,3,,3,7,,2,,8,,
{16}1,,6,,3,,6,2,,2,6,,4,,6,,
{16}3,,6,,2,,8,1,8,1,8,,3,,1,,
{16}4,,6,,3,,5,2,,2,6,,1,,7,,
{16}2,,6,,8,,6,1,6,1,6,,5,,3,,
{16}4,,3,,6,,2,5,,5,1,,7,8,1,2,
{16}3/8b,,7,,2,,6,1,,1,5,,8,,4,,
{16}1,,6,,2,,5,1,6,1,5,,1,5,1,7,
{16}1/8,,6,,3,,6,2,,2,7,,8,,6,,
{16}1,,5,,2,,5,3,4,3,5,,4,5,6,7,
{16}8/6,,2,,8,,2,7,,7,3,,6,,4,,
{16}6,,2,,7,,1,8,2,7,3,,5,4,6,4,
{16}3/5,,7,,2,,6,8,,8,5,,2,,8,,
{16}3,,6,,4,,5,4,6,3,7,,2,3,4,5,
{16}6/7,,5,,7,,6,5,6,5,6,,5,,3,,
{16}1,,3,,5,,4,6,4,6,4,,3,5,3,5,
{16}3/6,,7,,1,,6,5,6,5,6,,5,,7,,
{16}4,,1,,3,,4,5,4,5,4,,7,8,1,2,
{16}1/3,,5,,7,,6,5,6,5,4,,5,,3,,
{16}1,,3,,5,,6,5,6,5,4,,3,5,3,5,
{16}3/6,,7,,1,,6,5,6,5,4,,5,,7,,
{16}4,,1,,3,,4,5,4,5,6,,6,7,8,1,
{16}2,1,2,1,2,,7,8,7,8,7,,1,8,1,,
{16}6,5,6,5,6,,3,4,3,4,3,,5,4,5,,
{16}4,5,4,5,4,,5,4,5,4,5,,3,6,3,,
{16}7,2,7,2,7,,2,7,2,7,2,,8,1,8,,
{16}2,1,2,1,2,,7,8,7,8,7,,1,8,1,8,
{16}3,4,3,4,3,,6,5,6,5,6,,4,5,4,5,
{16}3,6,3,6,3,,7,2,7,2,7,,1,8,1,8,
{16}3,4,3,2,3,,5,4,5,6,5,,6,7,8,1,
{16}2/8,7,3,,6,,4,5,3,,8,,2,7,3,8,
{16}2,7,2,,8,,1,7,8,,3,,7,2,6,3,
{16}4/5,6,4,,7,,4,5,3,,7,,5,6,4,7,
{16}3,5,4,,7,,5,6,3,,7,,6,7,8,1,
{16}2/7,8,1,,8,,2,7,3,,6,,5,4,6,5,
{16}7,5,6,,1,,8,1,7,,2,,6,3,5,4,
{16}5/3,6,4,,7,,1,8,2,,6,,1,8,1,6,
{16}1,4,2,,6,,3,,5,4,5,,4,5,6,7,
{16}8,1,8,1,8,,2/7,2/7,1/8,,,,8b,,,,
{16}2,7,1,,8,2,8,2,7,3,7,,4,5,3,6,
{16}7,4,8,,2,1,2,1,3,4,3,,6,5,7,4,
{16}6,5,6,,4,5,4,5,3,6,3,,6,3,7,2,
{16}8,1,8,1,7,2,7,2,6,3,6,3,5,4,5,4,
{16}6,3,7,2,8,1,7,2,8,1,7,2,8,1,7,2,
{16}6,3,5,4,5,3,6,2,5,1,6,2,7,3,8,4,
{16}7,3,6,2,5,1,4,8,3/7,4/8,5/1,6/2,3/7-3[1:2],8/4,1/5,2/6,{1},
{4},,,2-6[1:2],{1},,,
E
&inote_6=(180.0){1},
{8}6pp1[4:1],5,4,,5^2[8:1],6,,5^8[8:1],
{8}4,,5p1[8:1],6,,5q1[8:1],4,,
{8}3qq8[4:1],4,5,,4^7[8:1],3,,4^1[8:1],
{8}6,5,4q8[8:1],2,3,4p8[8:1],,,
{8}6pp1[4:1],5,4,,5^2[8:1],6,,5^8[8:1],
{8}4,,5p1[8:1],6,,5q1[8:1],4,,
{8}3qq8[4:1],4,5,,4^7[8:1],2,,4^1[8:1],
{8}6,5-7[8:1],5-3[8:1],5-8[8:1],5-2[8:1],5-1[8:1],5,5,
{8}2-4[8:1],1-5[8:1],2<5[4:1],1,2,,,,
{8}7-5[8:1],8-4[8:1],7>4[4:1],8,7,,,,
{8}2-4[8:1],1-5[8:1],2<5[4:1],1,2,,7-4[8:1],8-2[8:1],
{8}7-3[8:1],8-4[8:1],7-5[8:1],8>4[4:1],7,8,,,
{8}8-4[8:1],2-4[8:1],8<4[16:3],2,8,,,,
{8}1-5[8:1],7-5[8:1],1>5[16:3],7,1,,,,
{8}8-4[8:1],2-4[8:1],8<4[16:3],2,8,,2-5[8:1],1-7[8:1],
{8}2-6[8:1],1-5[8:1],2-4[8:1],1-6[8:1],2-5[8:1],1-7[8:1],2,1,
{8}2b^7[8:1],,2,4p8[4:1],,8p4[4:1],,4-2[8:1]*-7[8:1],
{8},,,1-4[8:1],6-2[8:1],1-5[8:1],6,1,
{8}7^2[8:1],,7,5q1[4:1],,1q5[4:1],,5-2[8:1]*-7[8:1],
{8},,,8-5[8:1],3-7[8:1],8-4[8:1],3,8,
{8}3^6[8:1],,3,1q5[4:1],,5q1[4:1],,1-3[8:1]*-6[8:1],
{8},,,2-6[8:1],7-3[8:1],2-5[8:1],7,2,
{8}6^3[8:1],,6,8p4[4:1],,4p8[4:1],,8-3[8:1]*-6[8:1],
{8},,,7-3[8:1],2-6[8:1],7-4[8:1],2,7,
{8}2^7[8:1],,2,4p8[4:1],,8p4[4:1],,4-7[8:1],
{8},1-3[8:1],,1-7[8:1]/6-2[8:1],,1/6,,8,
{8}7^2[8:1],,7,5q1[4:1],,1q5[4:1],,5-2[8:1],
{8},8-6[8:1],,3-7[8:1]/8-2[8:1],,3/8,,,
{8}6^3[8:1],,6,8p4[4:1],,4p8[4:1],,8-3[8:1],
{8},5-7[8:1],,2-6[8:1]/5-3[8:1],,2/5,,2,
{8}3^6[8:1],,3,1q5[4:1],,5q1[4:1],,1-6[8:1],
{8},4-2[8:1],,4-6[8:1]/7-3[8:1],,4/7,,,
{4}1-7[8:1],3/1-5[8:1]*-6[8:1],1-3[8:1],7/1-4[8:1]*-5[8:1],
{4}1-7[8:1],3/1<5[8:1]*>5[8:1],1,3/7,
{4}8-2[8:1],6/8-3[8:1]*-4[8:1],8-6[8:1],2/8-4[8:1]*-5[8:1],
{4}8-2[8:1],6/8<4[8:1]*>4[8:1],8,2/6,
{4}1-3[8:1]*-4[8:1],1-5[8:1],2/1-6[8:1]*-7[8:1],1-5[8:1],
{4}8/1-3[8:1]*-4[8:1],1w5[8:1],1,3/7,
{4}8-5[8:1]*-6[8:1],8-4[8:1],7/8-2[8:1]*-3[8:1],8-4[8:1],
{16}1/8-5[8:1]*-6[8:1],,,,8w4[8:1],,,,8,,,,1/5,2/6,3/7,4/8,
{8}5/1-3[8:1],3,5/1-6[8:1],7,5/1-4[8:1],3,5/1-7[8:1],7,
{16}5/1-3[8:1],,3,,5/1-5[8:1],,7,,1/5,,,,5,6,7,8,
{8}5/1-3[8:1],3,5/1-6[8:1],7,5/1-4[8:1],3,5/1-7[8:1],7,
{8}5/1-5[8:1],3,1/5,7,3^8[8:1]/7^4[8:1],,,,
{8}4/8-6[8:1],6,4/8-3[8:1],2,4/8-5[8:1],6,4/8-2[8:1],2,
{16}4/8-6[8:1],,6,,4/8-4[8:1],,2,,4/8,,,,4,3,2,1,
{8}4/8-6[8:1],6,4/8-3[8:1],2,4/8-5[8:1],6,4/8-2[8:1],2,
{16}4/8-6[8:1],,6,,4/8-4[8:1],,2,,4/8,,,,3/7,8,1,2,
{16}3h[1:0]/7h[1:0],4h[1:0]/8h[1:0],1h[1:0]/5h[1:0],2h[1:0]/6h[1:0],3h[1:0]/7-3[8:1],4h[1:0]/8h[1:0],1h[1:0]/5h[1:0],2h[1:0]/6h[1:0],3h[1:0]/7h[1:0],,,,8b,,,,
{16}2/8-3[8:1],,1,,6/8,,7,,4/8q4[8:1],3/7,2/6,1/5,4/8,,,,
{16}7/1-6[8:1],,8,,1/3,,2,,5/1p5[8:1],2/6,3/7,4/8,1/5,,,,
{16}2/8-3[8:1],,1,,6/8,,7,,4/8q4[8:1],3/7,2/6,1/5,4/8,,,,
{16}7,8,5,1,6,2,7,3,4q8[8:1]/8q4[8:1],3/7,2/6,1/5,4/8,,,,
{16}2,1,4,8,3,7,2,6,1p5[8:1]/5p1[8:1],2/6,3/7,4/8,1/5,,,,
{16}3,6,4,5,2,7,4,8,3,7,2,6,1,5,8,4,
{16}3/7>6[16:7],4/8>7[16:7],5/1>8[16:7],6/2>1[16:7],7/3<2[16:7],,,,7,8,1,2,3,4,5,6,
{1}7h[4:7]/3h[4:15],,,
{4},,,7b,
E
