&title=Feel My Fire
&artist=発熱巫女〜ず
&wholebpm=123
&demo_seek=9.7
&demo_len=17.6
&lv_1=2
&lv_2=5
&lv_3=9
&lv_4=11
&lv_5=13
&des_4=ニャイン
&des_5=はっぴー
&inote_1=(123.0){1},2,
{1}1,
{1}8,
{1}7,
{4}6,6,,,
{4}5,5,,,
{4}4,4,,,
{4}3,3,,2-7[1:1],{1},,
{4},1,,,
{4},2,,,
{4},3,,,
{4},4,,,
{4},5,,,
{4},6,,,
{4},7,,,
{1}8/1,
{1}7,
{1}6,
{1}5,
{1}5/4,
{1}3,
{1}2,
{1}1b,
{1}1h[2:1],,
{1}7h[2:1],,
{4},5,,5,
{4},6,,6,
{4},7,,7,
{4},8-5[2:3],,,{1},,
{1}4,
{1}3,
{4}2,2,,,
{4}1,1,,,
{4}8,8-4[2:3],,,{1},,
E
&inote_2=(123.0){1},4-8[2:1],,
{1}7h[4:3],
{1}6h[4:3],
{2}8,8,
{2}1,1,
{2}2,2,
{2}3,3,
{1}4h[4:3],
{4},2,,1,
{4},8,,7,
{4},8,,8,
{4},1,,1b,
{4},8,,7,
{4},6,,5,
{4},7,,7,
{4},1,,1b,
{4},8,8,7,
{4},8,8,1,
{4},2,,4,
{4},2,,8b,
{4},7h[2:1],,,
{4},7,,5,
{4},8/7,,8/1,
{4},1/2,,8/1,
{1}7h[4:3],
{4}6,6,5,5,
{1}4h[4:3],
{4}5,6,7,8,
{1}1h[4:3],
{4}2,2,3,3,
{1}2-7[4:1],
{1}8-5[4:1],
{1}1h[4:7],,
{1}2h[4:7],,
{4}1,1,7,7,
{4}5,5,3,3,
{4}5,5,4,4,
{4}6,6,2,2-7[4:1],,,
E
&inote_3=(123.0){1},8^3[4:5],,
{1}4h[4:3],
{1}5h[4:3],
{4}2,4,3,8,
{4}7,5,6,1,
{2}2-7[4:1],6-3[4:1],
{8}7h[4:1],,8h[4:1],,1h[4:1],,2h[1874:1407],7h[8:5],
{4},,,1b/8b,
{8}8,1,2,,4,5,6,,
{4}1h[4:1],2,8h[4:1],7,
{8}2,8,6,,6,4,2,,
{2}8^3[8:1],7^4[8:1],
{8}3,4,5/6,,1,2,3/4,,
{4}4h[4:1],3,5h[4:1],6,
{8}8,8,3/5,,1,1,4/6,,
{2}2^5[8:1],1^6[8:1],
{8}7,6,5,4,3,2,1,,
{8}8-4[4:1],8,,,1-5[4:1],1,,,
{8}2,3,4,5,6,7,8,,
{4}4/2,8/2,8/6,4b/6b,
{8}1,3,5,7,6,4,2,,
{8}2-5[4:1],2,,,6-1[4:1],6,,,
{8}2,2,3/4,,1,1,8/7,,
{8}2,3,4,5,6,7,8b,,
{4}3h[4:1],4,6h[4:1],5,
{8}3,5,1,,7,3,5,,
{2}1-6[8:1],4-8[8:1],
{8}7,6,5,4,3,2,1b,,
{8}2,3,6/4,,1,8,5/7,,
{8}2,3,4,5,6,7,8/7,,
{4}4/5,4/3,3/2,1/2,
{8}3,4,5,6,7,8,
{4}1^6[4:3],{1},
{1}8h[1:1],
{2}1h[2:1],2h[2:1],
{1}3h[4:3],
{8}2/1,2/1,7/8,,4/3,4/3,6/5,,
{8}1^6[4:1],1,,,2^5[4:1],2,,,
{4}2h[4:1],8h[4:1],6h[4:1],4h[4:1],
{16}2h[2:1],,,,,,,,1,,,1,,,8b/1b,
E
&inote_4=(123.0){1},4-8[2:1],,
{1}1h[1:1],
{1}2h[1:1],
{4}3,8,5,2,
{4}7,4,1,6,
{4}3,8,5,2,
{8}7,,4,,1,,8,8h[8:7],
{8},,,,,,1,8/1,
{16},,3h[8:1]/2h[8:1],,,,3h[8:1]/4h[8:1],,,,1h[8:1]/2h[8:1],,,,8,8,
{16},,1h[16:3],,,2h[16:3],,,3h[8:3],,,,2,,8^5[8:1],,
{8},1h[8:5],,5h[8:5],,,,,
{8}7,7-3[8:1],,8-4[8:1],,1-5[8:1],,,
{16},,4h[8:1]/3h[8:1],,,,4h[8:1]/5h[8:1],,,,2h[8:1]/1h[8:1],,,,7,7,
{16},,8h[16:3],,,1h[16:3],,,2h[8:3],,,,3,,3-7[8:1],,
{8},6h[4:1],,5h[4:1],,4h[4:1],,3,
{8}3h[4:3],,,,,,4,5/6,
{16}8/7h[4:1],,,,1,,,,2,,3,,4,,3,2h[16:3],
{8},1h[8:5],,,,,8-5[8:1],,
{4}1-4[8:1],8-5[8:1],1-4[8:1],,
{8}8h[4:3],,,,,1,1b,,
{16}8,,7,,8,,1-5[8:1],2h[16:9],,,,,,,,,
{16}5,,6,,7/8,,6,5,,6,7,,8/1,,,,
{4}1/2h[4:1],3,1/8h[4:1],7,
{4}1/2h[4:1],4h[4:1],6h[4:1],8b,
{16}2/1h[8:1],,2h[8:1],,1,,,1/2,,,,,8b,,,,
{8}7,7-3[8:1],,1-5[8:1],,8-4[8:1],,,
{8},4/8,,2h[8:3]/6h[8:3],,,,,
{4}5/8,1/4,6/5,4/3,
{16}8/7h[8:1],,8h[8:1],,7,,,8/7,,,,,1b,,,,
{8}2,2-6[8:1],,8-4[8:1],,1-5[8:1],,,
{8},5h[8:1]/1h[8:1],,7h[8:1]/3h[8:1],,2h[8:1]/6h[8:1],,,
{4}5/8,1/4,5/6,3^8[2:1]/4^7[2:1],{1},
{1}8h[4:3],
{1}1-5[2:1],
{8}2-6[2:1],,,,,,8,8b,
{8},1-5[8:1],,7-3[8:1],,8-4[8:1],,6-2[8:1],
{8},3-7[8:1],,5-1[8:1],,4-8[8:1],,,
{8},8h[8:1]/4h[8:1],,2h[8:1]/6h[8:1],,5h[8:1]/1h[8:1],,4h[8:1]/8h[8:1],
{16},,6,,,4,,,5b/1b,,,6b/2b,,,3b/7b,
E
&inote_5=(123.0){1},
{16}2/5h[8:7],,,,1,,,8,,,7,,,,6,,
{16},,7/4h[4:3],,,8,,,1,,,2,,,3,,
{16},,2/5h[4:3],,,1,,,8,,,7,,,6,,
{16},,7/4h[4:3],,,8,,,1,,,2,,,3,,
{16}2-5[8:5],,,,1,,,8,,,7,,,,6,,
{16},,7-4[2:1],,,8,,,1,,,2,,,3,,
{16},,5-2[2:1],,,1,,,8,,,7,,,6,,
{16},,7,,,8,,,1/3,,,2,3h[1:1],,
{8}7h[8:7],{1},
{16}2,3,4,3,2,,5,6,,6,7h[4:1],,,,,,
{16}7,6,5,6,7,,4,3,,3,2h[4:1],,,,6^1[8:1],,
{8},2^5[8:1],,,,4,,4,
{16}8,7,6,5,4h[8:3],,8,,,,3,2,1,8,8,,
{16}3,2,1,2,3,,8,7,,7,6h[4:1],,,,,,
{16}6,7,8,7,6,,1,2,,2,3h[4:1],,,,7^4[8:1],,
{8},3^8[8:1],,6^3[8:1],,,,1,
{16}1,2,3,4,5h[8:3],,1,,,,6,7,8,1,1b,,
{4}1-4[8:1],4-1[8:1],1-4[8:1],4-1[8:1],
{4}1-4[8:1],4-1[8:1],1-4[8:1],,
{8}8-5[8:1],,5-8[8:1],,8-5[8:1],2,5-8[8:1],,
{8}8-5[8:1],,5-8[8:1],,8-5[8:1],2,,,
{8}1-5[8:1],7,5-1[8:1],,1-5[8:1],7,5-1[8:1],,
{8}1-5[8:1],7,5-1[8:1],,1-5[8:1],7,,,
{8}8-4[8:1],2,4-8[8:1],2,8-4[8:1],2,4-8[8:1],2,
{8}8-4[8:1],2,4-8[8:1],1,8-4[8:1],3,,2b,
{16}1^6[8:1],,1,,2h[16:3],,,5,,3,4,3,,,6h[8:1]/5h[8:1],,
{8},3h[8:1]/4h[8:1],,6h[8:1]/5h[8:1],,4h[8:1]/3h[8:1],,5/6^1[8:1],
{16},,4^7[8:1],,,,,,,5,4,3,4,3,2,1,
{8}5h[2:1],6,,6,4h[2:1],3,,3,
{16}8^3[8:1],,8,,7h[16:3],,,4,,6,5,6,,,2h[8:1]/4h[8:1],,
{8},5h[8:1]/7h[8:1],,2h[8:1]/4h[8:1],,5h[8:1]/7h[8:1],,2/4^7[8:1],
{8},8^3[8:1],,5>8[8:1],,7b,,,
{8}6h[2:1],7,,7,3h[8:3],2,,2,
{16}1-6[8:5],,,,2,,,8,,,7,,,,5,,
{16},,7-4[2:1],,,8,,,6,,,5,,,3,,
{16},,5-2[2:1],,,6,,,4,,,3,,,1,,
{16},,3-8[2:1],,,4,,,2,,,1,,,7,,
{8}6^1[8:1],4,,4,3^8[8:1],5,,5,
{8}6^1[8:1],3,,3,3^8[8:1],6,,3^6[8:1],
{8},7^2[8:1],,4-8[8:1],,,,,
{16},,3/1,,,4/2,,,8/6,,,5/7,,,6/3,
E
