&title=Endless World
&artist=RYOHEI KOHNO/保立美和子
&wholebpm=142
&demo_seek=62.03
&demo_len=14.03
&lv_1=2
&lv_2=5
&lv_3=7
&lv_4=11
&lv_5=12+
&lv_6=13
&des_4=はっぴー
&des_5=ニャイン
&des_6=Jack
&inote_1=(142.0){1},,,,,
{1}2,,
{1}3,,
{1}4,,
{1}5,,
{1}7,
{1}7,
{1}8,
{1}8,
{1}1,
{1}1,
{1}2-7[4:3],,
{1}8,
{1}8,
{1}1,
{1}1,
{1}2,
{1}2,
{1}3-6[4:3],,
{1}6,
{1}6,
{1}6,,
{1}7,
{1}7,
{1}7,
{2}7,8b,
{2}8,8,
{1}8h[2:1],
{2}1,1,
{1}1h[2:1],
{2}2,2,
{1}2h[2:1],
{2}3,3,
{1}3h[2:1],
{1}4,,
{1}6/5,,
{2}7,7,
{1}7,
{2}8,8,
{2}8,1b,
{4},2,,2,
{4},3,,3,
{4},4,,4,
{4},5,,5,
{4},6,,6,
{4},7,,7,
{2},8,
{1}8h[2:1],
{2}7,7,
{1}7h[2:1],
{2}8,8,
{1}8h[2:1],
{2}1,1,
{1}1h[2:1],
{2}2,2,
{1}2h[2:1],
{2}1,8,
{2}1,8b,
E
&inote_2=(142.0){1},,,,,
{1}1,,
{1}8,,
{2}1,1,
{2}2,2,
{2}1,1,
{1}8b,
{2}1,1,
{2}2,2,
{2}1,1,
{2}8,8,
{2}7,7,
{2}6,6,
{2}5,5,
{2}4,4,
{4}5,5,,,
{4}3,3,,,
{4}7,7,,,
{4}1,1,,,
{4}8,8,,,
{4}7,7,,,
{4}8,8,,,
{4}1,1,,,
{1}2h[4:3],
{1}3h[4:3],
{1}2-7[2:1],,
{1}6h[4:3],
{1}5h[4:3],
{1}6-2[2:1],
{4}1,1,1,1b,
{2}8,7,
{1}6h[4:3],
{2}8,1,
{1}2h[4:3],
{2}2,1,
{1}7h[4:3]/8h[4:3],
{2}1,1,
{2}2,2b,
{1}3-8[2:1],,
{1}7h[4:7],,
{2}7,7,
{2}6,6,
{2}8,8,
{4}1,1,1,1b,
{2}8,7,
{1}6h[4:3],
{2}8,1,
{1}2h[4:3],
{2}2,1,
{1}7h[4:3]/8h[4:3],
{2}1,1,
{2}2,2b,
{1}3-8[2:1],
{1}7h[4:3],
{1}6-2[2:1],
{1}3h[4:3],
{2}2,2,
{2}1,1,
{2}8,2,
{2}4,6,
{1}8h[4:3],
{1}8b,
E
&inote_3=(142.0){1},,,,,
{1}1h[4:7],,
{1}2h[2:3],
{2},3-8[8:1],
{4}1,1,8,8,
{4}2,2,6,6,
{4}4,4,5,5,
{4}3,7,1,8b,
{8}7h[2:1],,,,6h[8:3],,,5h[8:3],
{4},,7,8,
{8}1h[2:1],,,,2h[8:3],,,3h[8:7],{1},
{8}1h[2:1],,,,8h[8:3],,,7h[8:3],
{4},,1,2,
{8}3h[8:5],,,,,4,,4h[8:7],{1},
{4}3,3,2,2,
{4}1,1,8,8,
{4}7,7,6,6,
{4}5,5,4,4,
{4}6,6,7,7,
{4}8,8,1,1,
{1}2h[4:5],
{4},,,3-8[8:1],
{8},,,,8,,7,7h[8:3],
{8},,6,6h[8:3],,,,,
{8}8h[8:3],,,1,,2h[8:9],,,
{4},,,4-1[8:1],
{8},,,,1,,8,8h[8:3],
{8},,1,1h[8:3],,,,,
{1}2-7[4:1],
{4}6-3[4:1],,,2b,
{4}1,1,8,8,
{1}7h[4:3],
{2}8h[2:1],1h[2:1],
{1}2h[4:3],
{4}3,3,4,4,
{4}5,5,6,6,
{1}7-2[4:1],
{1}5-8[4:1],
{1}2h[4:7],,
{1}3h[4:7],,
{4}2,2,1,1,
{4}8,8,7,7,
{4}8,8,1,1,
{4}8,6,4,2b,
{4}8,8,7,7,
{1}6h[4:3],
{2}8h[2:1],1h[2:1],
{1}2h[4:3],
{4}1,1,8,8,
{4}7,7,6,6,
{1}5-2[4:1],
{4}3-8[4:1],,,8b,
{4}7,6,5,4h[1:1],
{1}3h[4:3],
{4}4,5,6,7h[1:1],
{1}8h[4:3],
{4}6,5,4,3,
{1}2h[4:3]/1h[4:3],
{4}3,4,5,6/7,
{1}7h[4:3]/8h[4:3],
{4}6,5,4,3,
{16}1/2,,,1/8,,,1b/8b,
E
&inote_4=(142.0){1},
{2}7h[2:1],5h[2:3],
{1}3h[2:3],
{2},2h[2:1],
{2}4h[2:1],6h[2:1],
{8}8b,,,,,,,3,
{8},4,,5,6h[2:1],,,,
{8},,,,,,6,6,
{8},5,,4,3h[2:1],,,,
{8}1,3,4,2,8,6,5,7,
{8}1,5,2,8,4,8,3,5,
{8}2,7,5,1,3,6,8,2,
{1}4b,
{8}5/1h[4:1],,5,,6/2h[4:1],,6,3h[8:5],
{8}5,,5,,4,4,5,5,
{8}1/6h[4:1],,1,,2/7h[4:1],,2,8h[8:5],
{4}1,1,2,2,
{8}4/1^6[4:1],,4,,8^3[4:1],,,6^3[4:1],
{8},,,7,8,8,1,1,
{8}8/2^5[4:1],,8,,,6-1[4:1],,8^3[8:3],{1},
{16}8h[8:3],,,7,,,6,,1h[8:3],,,2,,,3,,
{16},,5h[8:3],,,,6,,6,,,4h[16:3],,,3,,
{16}7h[8:3],,,6,,,5,,2h[8:3],,,3,,,4,,
{16},,8h[8:3],,,,7,,7,,,1h[16:3],,,2,,
{16}8^3[8:1],,,7,,,7,,1^6[8:1],,,3,,,3,,
{16},,5h[8:3],,,,6,,6,,,4h[16:3],,,3,,
{16}7^4[8:1],,,8,,,8,,2^5[8:1],,,1,,,1,,
{8},7h[4:1],,6,5,5,4,4,
{1}1h[1:1],
{2}7-4[8:1],2-5[8:1],
{4}2/1h[4:3],4,6,8,
{4}7/8h[4:3],5,3,1,
{1}4h[1:1],
{2}6-1[8:1],3-8[8:1],
{4}7/6h[4:3],1,3,5,
{8}4/2h[2:1],,6,,8b,,3,4,
{4}4h[4:1],6h[4:1],8h[4:1],2h[4:1],
{2}6h[2:1],2^7[8:1],
{4}5h[4:1],3h[4:1],1h[4:1],7h[4:1],
{8}3h[2:1],,,,7^4[8:1],,2,2,
{4}3h[4:1],2h[4:1],1h[4:1],8h[4:1],
{8}7h[2:1],,,,2,,8/6,7,
{8}1,,1/3,2,8,,7h[1:1],,
{1}2h[4:3],
{2}2,6,
{4}1-5[8:1],7-3[8:1],8-4[8:1],,
{2}7,3,
{4}8-4[8:1],2-6[8:1],1-5[8:1],,
{16}1h[8:3],,,3,,,2,,8h[8:3],,,6,,,7,,
{16}4h[8:3],,,2,,,3,,5h[8:3],,,7,,,6,,
{16}1h[8:3],,,4,,,2,,8h[8:3],,,5,,,7,,
{16}6/1,,,8/3,,,6/5,,3/4,,,,,,,,
{8}2h[4:1],,,4,4h[4:1],,,5,
{8}5h[4:1],,,7,7h[4:1],,,7,
{8}6h[4:1],,,6,8h[4:1],,,8,
{8}1h[4:1],,,1,3h[4:1],,,3,
{8}5/2h[4:1],,5,4,7/4h[4:1],,7,5,
{8}2/5h[4:1],,2,7,4/7h[4:1],,4,7,
{8}1/6h[4:1],,1,6,3/8h[4:1],,3,8,
{8}6/1h[4:1],,6,1,8/3h[4:1],,8,3,
{8}1h[4:1],,2h[4:1],,3h[4:1],,4h[4:1],8,
{8}8h[4:1],7,7h[4:1],6,6h[4:1],,5h[4:1],,
{8}1h[4:1],,3h[4:1],,5h[4:1],,7h[4:1],8,
{8}8h[4:1],6,6h[4:1],4,4h[4:1],,2,3,
{2}3-8[8:1],6-1[8:1],
{8}7h[2:1]/2h[2:1],,,,,,7^4[8:1],7,
{8},,3^8[8:1],3,,,
{4}1-5[2:1]/7-2[2:1],{1},
{8}2/8h[4:1],,3,4,6/1h[4:1],,5,4,
{16}6/5,,,3^8[8:1]/4-8[8:1],,,,,,,
E
&inote_5=(142.0){1},,,,,
{8}3-8[4:1],,,,,,,8,
{8},8,,7,7h[2:1],,,,
{8}1h[2:1],,,,2h[8:3],,,3,
{8},3,,4,4h[2:1],,,,
{8}2h[4:3],,8,,6,,4,4,
{8},6h[8:3],,8,8h[2:1],,,,
{4}7^4[4:1],1,7,3h[4:1],
{1}1b,
{2}7-3[4:1],4-8[4:1],
{8}1-5[4:1],,,,1,8,7,6,
{2}5-2[4:1],1-6[4:1],
{2}7^4[4:1],8^5[4:1],
{2}2-5[4:1],7-3[4:1],
{8}4-8[4:1],,,,7,8,1,2,
{2}3-8[4:1],5-1[4:1],
{8}2-5[4:1],2,,,8-4[4:1],8,1b,,
{16}2,,3,4,,4,3,,1,,8,7,,7,8,,
{16}2,,3,4,,4,5,,7,,6,5,,5,4,,
{16}5,,6,7,,7,6,,4,,3,2,,2,3,,
{16}4,,5,6,,6,7,,5,,4,3,,3,2,,
{16}1-5[8:1],,,1,,,,,5-2[8:1],,,5,,,,,
{16}2-7[8:1],,,2,,,,,7-3[8:1],,,7,,,,,
{4}3-8[8:1],8^5[4:1],5^2[4:1],2^5[4:1],
{4}5^8[4:1],8^3[4:1],3^6[4:1],,
{16}1-4[4:1],,,1,,,1,,1-5[4:1],,,1,,,1,,
{16}6-2[4:1],,,6,,,6,,6-1[4:1],,,6,,,6,,
{8}5h[4:1],,3,1^4[8:3]/6^1[8:3],,,,,
{4},,,4-8[4:1],
{8},,,,8,7,6,4h[2:1],
{8},,2,2h[8:5],,,,4,
{8}4h[1597:596],,6,6h[2:1],,7,,1h[8:3],
{8},,,,1b,,8/1,8/7,
{8}6-2[16:1],,7,8,1-6[16:1],,8,7,
{8}6-2[16:1],,3,3,4-8[16:1],,7,7,
{4}6h[4:1],4h[4:1],2h[4:1],8h[4:1],
{8}7-2[16:1],,3,3,4-1[16:1],,8,8,
{16}8h[16:3],,,7,,,8h[8:1],,2h[16:3],,,3,,,4h[8:1],,
{16}2h[16:3],,,1,,,8h[8:1],,6h[16:3],,,5,,,4h[8:1],,
{16}6^3[16:1],,,6,,,5,,6^1[16:1],,,6,,,7,,
{4}6-2[16:1],3-8[16:1],,8b,
{8}1h[4:1],,2,3,4h[4:1],,2,1,
{8}2h[4:1],,6,5,7h[4:1],,1,3,
{8}4h[4:1],,2,1,2h[4:1],,6,5,
{8}7h[4:1],,1,3,4h[4:1],,2,1,
{8}8/7-3[16:1],,8,1,2/3-8[16:1],,2,1,
{8}7/8^3[16:1],,6,7,1/8^5[16:1],,2,1,
{8}8h[4:1],,4,3,2^5[16:1],,1^6[4:1],2,
{2}6^3[4:1],1b,
{8}6-2[16:1],,7,8,1-6[16:1],,8,7,
{8}6-2[16:1],,3,3,4-8[16:1],,7,7,
{4}6h[4:1],4h[4:1],2h[4:1],8h[4:1],
{8}7-2[16:1],,3,3,4-1[16:1],,8,8,
{16}8h[16:3],,,7,,,8h[8:1],,2h[16:3],,,3,,,4h[8:1],,
{16}2h[16:3],,,1,,,8h[8:1],,6h[16:3],,,5,,,4h[8:1],,
{16}6^3[16:1],,,6,,,5,,6^1[16:1],,,6,,,7,,
{4}6-2[16:1],3-8[16:1],,8b,
{2}1h[4:1]/2-6[16:1],7h[4:1]/6-3[16:1],
{2}4h[4:3]/3-7[16:1],7-2[16:1],
{2}1h[4:1]/2^5[16:1],8h[4:1]/5^2[16:1],
{2}7h[4:3]/2-5[16:1],5-1[16:1],
{16}4/3^8[16:1],,,3,,,2,,1/2^5[16:1],,,2,,,3,,
{16}6/5-1[16:1],,,5,,,4,,8/1^4[16:1],,,1,,,2,,
{8}8h[4:1],,7,6,5h[4:1],,7,,
{1}2h[4:3]/1h[4:3],
{8}5/1-4[16:1],,6,8,4/8-5[16:1],,6,8,
{16}3b/8b,,,7b/5b,,,2b/4b,
E
&inote_6=(142.0){1},
{2}2h[2:1],3h[2:1],
{1}4pp2[2:1],
{2}7h[2:1],6h[2:1],
{2}5h[2:1],4w8[8:1],
{8}2b/6b,,,,,,,3/4,
{8},6/7,,1-6[8:1]/2-5[8:1],1/2,,,,
{8}6h[4:3],,,,5h[4:1],,,5/6,
{8},2/3,,7-4[8:1]/8-3[8:1],7/8,,,,
{4}5/2qq7[8:5],5,6,6,
{16}7/8,,,1/2,,,3/6qq3[8:5],,,,,,,,,,
{8}2h[4:3],,,,7h[4:1],,,2/7,
{16},,,,,,4/5,,,4,5,,5,,4,,
{16}7b/2-5[8:1],,,7,,,7,,6/5-1[8:1],,,6,,,6,,
{16}7/1-6[8:1],,,7,,,7,,5/6,,2,,3/4,,7,,
{16}6/5-1[8:1],,,6,,,6,,7/1^4[8:1],,,7,,,7,,
{16}6/4-8[8:1],,,6,,,6,,7/8,,7/8,,1/6,,,,
{16}2/7-4[8:1],,,2,,,2,,3/4-8[8:1],,,3,,,3,,
{16}2/8-3[8:1],,,2,,,2,,3/4,,7,,5/6,,2,,
{16}3/4-8[8:1],,,3,,,3,,2/8^5[8:1],,,2,,,2,,
{16}3/5-1[8:1],,,3,,,3,,1/2,,2,1,3,8,4,7,
{16}5b/6,,3,4,,2,3,,1/2,,6,5,,7,6,,
{16}7/8,,3,4,,6,5,,3/4,,8,,5/6,,1,,
{16}3/4,,6,5,,7,6,,7/8,,3,4,,2,3,,
{16}1/2,,6,5,,3,4,,2/7,,8,1,,4,5,4,
{16}5^8[8:1],,,5h[16:5],,,,,8-4[8:1],,,8h[16:5],,,,,
{16}4^1[8:1],,,4h[16:5],,,,,1-5[8:1],,,1h[16:5],,,,,
{4}5-8[8:1],5-2[8:1],1-6[8:1],1-4[8:1],
{8}5w1[8:1],,,,3/7,6,5<4[4:3],4,
{4}3,4,5,6,
{2}7-3[8:1]/8-2[8:1],2-6[8:1]/3-5[8:1],
{8}5h[4:1]/6h[4:1],,,5qq2[8:7]/6pp1[8:7],,,,,
{4},,,4-8[8:1],
{8}2h[2:1],,,,8,1,2,3h[8:3],
{8},,5-1[8:1],3,7h[8:3],,,2,
{8}2h[4:1],,4,4h[4:1],,6h[4:1],,8h[16:5],
{16},,,1,8,1,8,1,2b/7b,,,,1/2,,1/8,,
{8}7/8h[4:1],,7^4[8:1],8,7/1h[4:1],,8^5[8:1],1,
{8}8/2h[4:1],,1^6[8:1],2,1/3h[4:1],,4-1[8:1],,
{4}4/2-7[8:1],2/8-5[8:1],8/6-3[8:1],6/4p1[8:3],
{8}4/8h[2:1],,,,,,5/6,4/5,
{16}3/4-8[8:1],,,3,,,3,,2/8^5[8:1],,,2,,,2,,
{16}3/5-1[8:1],,,3,,,3,,2/1h[4:1],,,,2^5[8:1],,1,,
{8}2/8h[4:1],,1^4[8:1],8,1/7h[4:1],,8>7[8:3],7,
{2}8/6h[2:1],1w5[8:1],
{1}3b/7b,
{1}4h[4:3]/6h[4:3],
{2}5,4,
{8}3h[4:3]/5h[4:3],,,,,,,
{983}4,,,,,,,,,,,,,,,,,,,,,,,,,,,,,,,,,,,,,,,,,
{625}5,,,,,,,,,,,,,,,,,,,,,,,,,,
{983}3,,,,,,,,,,,,,,,,,,,,,,,,,,,,,,,,,,,,,,,,,
{8}4,,6,5,6,,3,4,
{8}3,,7,8,1/6,,2,1,
{8}3/8h[4:1],,4,3,2^5[8:1],,1^6[4:1],2,
{8}6^3[4:1],,,,1b,,5/6,4/5,
{8}3/4h[4:1],,3^8[8:1],4,3/5h[4:1],,4^1[8:1],5,
{8}4/6h[4:1],,5^2[8:1],6,5/7h[4:1],,8-5[8:1],,
{4}8/6-3[8:1],6/4-1[8:1],4/2-7[8:1],2/8p5[8:3],
{8}8/4h[2:1],,,,,,1/2,1/8,
{16}7/8-4[8:1],,,7,,,7,,6/4^1[8:1],,,6,,,6,,
{16}7/1-5[8:1],,,7,,,7,,6/5h[4:1],,,,6^1[8:1],,5,,
{8}6/4h[4:1],,5^8[8:1],4,5/3h[4:1],,4^7[8:1],3,
{16}4/2h[4:1],,,,1,2,,3/8,,4/7,,5/6,,1,1,,
{8}8h[4:1]/2b-6[8:1],,,,7h[4:1]/6-2[8:1],,,7,
{8}1-7[8:1],6,,5,5-3[8:1],,1b,,
{8}2h[4:1]/7-3[8:1],,,,1h[4:1]/3-7[8:1],,,1,
{8}5-1[8:1],2,,3,3b/7b,,6^1[8:1],5,
{8}5,,3^8[8:1],,4,,6<3[4:1],5,
{8}5,4,,1/8,1b/8b,,1-5[8:1],2/8,
{8}1,,8-4[8:1],1/7,8,,1q5[8:1]/7-2[8:1],,
{16}7b,,,,6,5,7,4,8,3,1,2,8,1,8,,
{8}6b/5-1[8:1],,6,7,1b/8-4[8:1],,1,2,
{16}3b/4,,,5/6b,,,1b/8b,
E
