&title=BAD∞END∞NIGHT
&artist=ひとしずくP・やま△
&wholebpm=204
&demo_seek=62
&demo_len=18.9
&lv_1=2
&lv_2=6
&lv_3=8+
&lv_4=10+
&lv_5=13
&des_4=譜面-100号
&des_5=ニャイン
&inote_1=(204.0){1},,,,,,
{1}7,
{1}7,
{1}8,
{1}8b,
{1}1,,
{1}2,,
{1}1,,
{1}8,,
{1}7,
{1}7,
{1}6,
{1}6,
{1}7,
{1}7,
{1}8,
{1}8,
{1}1,
{1}2,
{1}3,
{1}4,
{2}3,3,{1},
{2}2,2,{1},
{1}1h[2:1],,
{1}8h[2:1],,
{1}8,,
{1}7,,
{1}8,,
{1}1,
{1}2,
{1}3-6[2:1],,
{1}7-2[2:1],,
{1}3,
{1}4,
{1}4/5,
{1}6/3,,,
{1}8,
{1}8,
{1}1,
{1}2,
{1}1,
{1}8,
{2}7,7,
{1}7,
{1}8,
{1}1,
{2}2,2,
{1}2,
{1}1,
{1}8b,
{2}8,8,
{1}8,
{1}7,
{1}6,
{2}7,7,
{1}7,
{1}8,
{1}1,
{1}1/8,
{1}8/1,
{1}7/2,
{1}7/2,
{1}8h[1:1],,
{1}8,
{1}1b,
E
&inote_2=(204.0){1},,,
{2}3,3,
{2}3,3,{1},,
{1}1h[1:1]/7h[1:1],,
{1}1-4[2:1],
{2},2,
{2}4,5,
{2},3/6,
{2},4,
{2}7,1,{1},
{4}6,6,6,,
{2},4,
{2},5h[2:1],{1},
{1}3h[2:1]/6h[2:1],
{2}1,4,
{1}2,
{2},1/8,
{4}3/6,5/4,6/3,,
{2}3,3,
{2}6,6,
{2}1,1,
{2}8,8,
{1}7h[2:1]/2h[2:1],
{4}1b,1b,
{2}7,{1},
{1}7-2[2:1],,
{1}5-2[2:1],,
{1}7h[2:1]/2h[2:1],
{2}3,3,
{2}3,3,
{2}6/5,4/3,
{2}6/5,4/3,
{2},2-6[2:1],{1},
{2}1,1,{1},
{2}7,1,
{1}7h[2:1],,
{2},2b,
{2}1,1,
{2}8,8,
{4},,,4-1[2:1]/5-8[2:1],{1},,,
{4},2,,7,
{1}7h[2:1],
{2}6,2,
{2}6,2/7,
{4},,6,3,
{2}3,3/1,{1},
{1}7h[2:1],
{2}2,7,
{2},2b,
{2},2h[2:1],{1},
{1}2/7,
{1}2h[2:1]/7h[2:1],
{4},,,7-2[2:1],{1},
{4},2,,7,
{1}7h[2:1],
{2}6,2,
{2}6,7/2,
{4},,6,3,
{2}3,3/1,{1},
{1}7h[2:1],
{2}2,7,
{2},2b,
{2},2h[2:1],{1},
{1}2/7,
{2}2h[2:1]/7h[2:1],,
E
&inote_3=(204.0){1},,,,,
{4}2,7,1,8,
{4}2,7,1,2,
{4}8,7,2,7,
{4}1,7,1/8,,
{4}2,3,4,5,
{4}6,7,8,,
{2}8,1,
{4}2/7,1/8,2/7,,
{4}6,7,8,1,
{4}2,3,4,,
{2}4,5,
{4}3,4,4b/5b,,
{4}7,6,5,4,
{4}3,2,1,,
{2}3/6,2/7,
{4}8,1,8,,
{4}2,3,4,5,
{4}6,7,8,,
{2}2,7,
{4}1/8,1-4[8:1]/8-5[8:1],,,
{2}2h[2:1],7h[2:1],
{4}1,8,1,,
{2}2,3,
{4}5,6,7,8,
{2}3h[2:1],6h[2:1],
{4}4,5,4,,
{2}3,2,
{4}8,7,6,5,
{1}5h[4:3],
{4}6,7,8,1,
{2}2h[2:1],3,
{4}4,5,4,,
{4}2h[4:1],3,7h[4:1],6,
{4}1,8,1,,
{2}2,7,
{4}5,3,6,3,
{2}2h[2:1],5h[2:1],
{4}3,4,3,,
{2}1/6,8/7,
{4}5,4,3,2,
{2}1/8,1/8,
{4}3,4,5,6,
{2}4/5,4/5,
{4}2,1,8,7,
{2}7/8,1/2,
{4}3,4,5,,
{4}8/1,2/7,6/3,5/4,
{2}6/3,7b/2b,
{4}6,5,4,3,
{4}2,1,7/8,1,
{4}2,3,4,5,
{4}5/6,6/5,5/6,,
{4}7,6,5,4,
{4}3,2,1/8,7,
{4}8,1,2,3,
{4}5/4,,2b/7b,2,
{4}2,3,3,4,
{4}5,6/7,7/6,,
{4}7,6,5,4,
{4}2/3,3/2,2/3,,
{4}1,3,5,7,
{4}8,6,4,2,
{4}3,4,5,4,
{4}4/5,,7b/2b,7,
{8}7,,6,,6,,5,4,
{4}5,4/3,3/4,2,
{4}1,8,7,8,
{4}1/2,3/2,3/4,,
{4}5,6,7,6,
{4}5,4,3,2,
{8}1,,8,1,8,,1,,
{4}1/2,,7b/8b,2,
{4}2,4,4,5,
{4}5,7,7,8,
{4}6,4,2,1,
{4}7/8,6/7,5/6,,
{4}4,3,2,1,
{4}8,1,2,3,
{4}4,5,4,3,
{4}1b/2b,7b/8b,7b/2b,
E
&inote_4=(204.0){1},
{4},,,3,
{4},,,3,
{4},,,3,
{4},,,3,
{4}5,5,5,5,
{12}5,,,5,,,5h[4:1],,,3,,6,
{12}4,,,4,,,4h[4:1],,,6,,3,
{4}5,4,6,,
{4}8,3,2h[4:1],,
{4}7,1,4h[4:1],,
{2}4-1[4:1],7h[4:1],
{2}5-8[4:1],2h[4:1],
{4}4,1,3h[4:1],,
{4}2,3/7,
{2}1-6[1:1],{1},
{4}6/5,5/6,5b/6b,,
{4}8,3,2h[4:1],,
{4}7,1,4h[1:1],,
{4}8,8,8,6h[833:625],
{4}3,3,,,
{4}1h[4:1],8h[4:1],5h[4:1],4,
{4}2,2-7[2:1]/3-6[2:1],,,
{4},,,7/2,
{4}4/5,6/3,5/4,,
{12}4,,4,6,,,4,,4,6,,,
{12}5,,5,3,,,5,,5,3,,,
{12}1,,1,7,,,1,,1,7,,,
{12}8,,8,2,,,8,,8,
{4}2-7[2:1],{1},
{4}1,1,7h[4:3],,
{2}3h[4:1],3/7,
{4}2,7,3^6[4:1],,
{4},8,1,8h[4:1],
{4}5h[4:1],7<2[2:1],,,
{4},1,1,,
{2}6h[4:1]/3h[4:1],7h[4:1]/2h[4:1],
{4}4h[2:1],5,5h[2:1],4,
{4}4h[2:1],5,5h[2:1],4,
{2}4h[4:1],4/5,
{4}6/5,4/5,4/3,,
{4}3,4,5,6,
{4}3/7,2/6,1h[4:1]/5h[4:5],,
{4}1,6,1,6,
{1}4-1[2:1],
{4}8/7,8/1,2/1,3/2,
{1}1-4[2:1],
{4}6/7,5/6,4/5,3/4,
{2}6,2b,
{4}7,6,2,3,
{4}8,8,8,,
{4}7h[2:1]/2h[2:1],,,4-1[2:1]/5-8[2:1],{1},
{1}6/4h[4:3],
{2}3^6[4:1],2^7[4:1],
{2}4^1[4:1],5^8[4:1],
{2}2h[2:1],7h[4:7],
{4}4,6,5,
{501}3,,,,,,,,,,,,,,,,,,,,,,,,,,,,,,,,,,,,,,,,,,,,,,,,,,,,,,,,,,,,,,,,,,,,,,,,,,,,,,,,,,,,,,,,,,,,,,,,,,,,,,,,,,,,,,,,,,,,,,,,,,,,,
{1000}4,
{4},2,7/2,5/4,
{4}5/4,5/4,6/5,4/3,
{4}4/3h[4:1],4,3/8,,
{4}4,2,5,7h[1:1],
{4}4,1,4,1,
{4}6/2h[4:1],1,3/7h[4:1],8,
{1}6h[2:1]/5^2[4:1],
{4}6,6,6h[4:5],,
{4}2,2,2h[4:1],,
{4}6/3,4/5,8/1,4/5,
{4}3/6,7/2,4/5,,
{1}6/4h[4:3],
{2}3^6[4:1],2^7[4:1],
{2}4^1[4:1],5^8[4:1],
{2}2h[2:1],7h[4:7],
{4}4,6,5,
{501}3,,,,,,,,,,,,,,,,,,,,,,,,,,,,,,,,,,,,,,,,,,,,,,,,,,,,,,,,,,,,,,,,,,,,,,,,,,,,,,,,,,,,,,,,,,,,,,,,,,,,,,,,,,,,,,,,,,,,,,,,,,,,,
{1000}4,
{4},2,7/2,5/4,
{4}5/4,5/4,6/5,4/3,
{4}4/3h[4:1],4,8/3,,
{4}4,2,5,7h[1:1],
{4}4,1,4,1,
{4}6/2h[4:1],1,3/7h[4:1],8,
{1}6h[2:1]/5^2[4:1],
{4}6,6,6h[4:5],,
{4}2,2,2h[4:1],,
{4}6/3,4/5,8/1,4/5,
{4}3/6,2/7,4/5,2b/7b,
E
&inote_5=(204.0){1},,,,,
{12}6,,,6,,,6,,,6,,6,
{4}5,4,3,2,
{12}1,,,1,,,1,,,1,,8,
{12}7,
{995}6,,,,,,,,,,,,,,,,,,,,,,,,,,,,,,,,,,,,,,,,,,,,,,,,,,,,,,,,,,,,,,,,,,,,,,,,,,,,,,,,,,,
{12}7,8,
{995}1,,,,,,,,,,,,,,,,,,,,,,,,,,,,,,,,,,,,,,,,,,,,,,,,,,,,,,,,,,,,,,,,,,,,,,,,,,,,,,,,,,,
{12}2,3,,,,,,
{12}2/3,,,5/4,,,6/7,,,8,,8,
{12}1,,1,2,,2,3,,,4,,4,
{12}5,,,7,,7,6,,,2,,2,
{4}3,4/8,2/6,,
{12}1/8,,,7/6,,,4/5,,,3,,3,
{12}2,,2,1,,1,8,,,6,,6,
{12}7,,,2,,2,3,,,4/5,,,
{12}4,
{995}3,,,,,,,,,,,,,,,,,,,,,,,,,,,,,,,,,,,,,,,,,,,,,,,,,,,,,,,,,,,,,,,,,,,,,,,,,,,,,,,,,,,
{12}2,1,
{995}8,,,,,,,,,,,,,,,,,,,,,,,,,,,,,,,,,,,,,,,,,,,,,,,,,,,,,,,,,,,,,,,,,,,,,,,,,,,,,,,,,,,
{12}7,6,,,4-7[8:1],,,
{4},5-2[8:1],,3-8[8:1],
{4},6-1[8:1],,8<4[8:1],
{4},1^4[8:1],,5^8[8:1],
{4},1^4[8:1],,5-2[8:1],
{4}1-6[8:1],8-3[8:1],4-7[8:1],1^4[8:1],
{4}1-4[8:1],8^3[8:1],8-5[8:1],4^1[8:1],
{4}8^5[8:1],4^1[8:1],8^5[8:1],,
{4}2/3,8/1,6/7,,
{4}1,8/2,8,7/1,
{4}1,2/8,8,1/7,
{4}2,3/8,1,4/6,
{4}5,5/3,4,4/6,
{4}8,7/1,1,8/2,
{4}8,7/1,1,2/8,
{4}7,1/6,2,3/8,
{4}7,5/1,6/2,3/7,
{12}8h[4:3],,,7,,,1,,,2,,2h[4:1],
{12},,3,4,,2,1,,2,3,,4,
{12}5h[4:3],,,6,,,4,,,3,,3h[4:1],
{12},,2,1,,1,8,,,,,,
{4}1-4[8:1],2,2-6[8:1],5,
{4}5-8[8:1],6,6-2[8:1],1,
{4}1-5[8:1],8,8-4[8:1],3,
{4}3-8[8:1],6,6-1[8:1],8,
{4}7,2/6,3,4/8,
{12}7,,1,2,,3,1,,,8,,,
{4}7/2,5/1,2/7,4/8,
{4}3-7[8:1],1-5[8:1],8-5[8:1],1-4[4:3],
{4}5,6,7,8,
{4}1/5h[4:3],8,7,6-3[8:1],
{4}8,2-7[8:1],1,2,
{4}3/7h[4:3],6,5,4-8[8:1],
{4},5-1[8:1],,1-6[8:1]/8-3[8:1],
{4},4^1[8:1]/5^8[8:1],,7/2,
{4}1b/5b,3b/7b,2b/6b,4b/8b,
{1}2b/7b,
{2}1h[2:1],5h[2:1],
{2}3h[2:1],7h[2:1],
{12}1h[1999:833],,,2,,8,7h[4:1],,,6,,1,
{12}2,,,7/1,,,6/8,,,1,,2,
{12}3h[2:1],,,2,,,1h[1999:833],,,8,,8,
{12}7h[2:1],,,6,,,5,,,1-4[10000:833],,8,
{12},,,8-5[10000:833],,1,,,,2,,8,
{12}7b,,,8b/1b,,,
{1000}1b,
{501}2b,,,,,,,,,,,,,,,,,,,,,,,,,,,,,,,,,,,,,,,,,,,,,,,,,,,,,,,,,,,,,,,,,,,,,,,,,,,,,,,,,,,,,,,,,,,,,,,,,,,,,,,,,,,,,,,,,,,,,,,,,,,,,
{12}8,,8,
{12}3,,3,6,,6,2,,2,7,,7,
{12}4,,4,5,,5,1,
{995}8,,,,,,,,,,,,,,,,,,,,,,,,,,,,,,,,,,,,,,,,,,,,,,,,,,,,,,,,,,,,,,,,,,,,,,,,,,,,,,,,,,,
{12}1,7,
{995}2,,,,,,,,,,,,,,,,,,,,,,,,,,,,,,,,,,,,,,,,,,,,,,,,,,,,,,,,,,,,,,,,,,,,,,,,,,,,,,,,,,,
{12}7,
{12}3,,5,4,,4,7,,7,1,,1,
{12}8b,,8,1b,,1,8b,,,7-4[10000:833],,8-3[10000:833],
{12},,,1-6[10000:833],,2-5[10000:833],,,,4-7[10000:833],,3-8[10000:833],
{12},,,6-1[10000:833],,5-2[10000:833],,,,4^7[4:1],,,
{4}1,8^3[4:1],7,6,
{12}5b/3b,,,4b/6b,,,3b/5b,,,2,,1,
{12}8,,8,7,,1,2,,1,8,
{995}7,,,,,,,,,,,,,,,,,,,,,,,,,,,,,,,,,,,,,,,,,,,,,,,,,,,,,,,,,,,,,,,,,,,,,,,,,,,,,,,,,,,
{12}6,
{12}5,,3,4,,6,5,,6,5,
{995}4,,,,,,,,,,,,,,,,,,,,,,,,,,,,,,,,,,,,,,,,,,,,,,,,,,,,,,,,,,,,,,,,,,,,,,,,,,,,,,,,,,,
{12}3,
{12}2,,,1,,8,7,,,1,,2,
{12}8b,,6,1b,,3,8b,,,7,,8,
{12}1,,1,2,,8,7,,8,1,
{995}2,,,,,,,,,,,,,,,,,,,,,,,,,,,,,,,,,,,,,,,,,,,,,,,,,,,,,,,,,,,,,,,,,,,,,,,,,,,,,,,,,,,
{12}3,
{12}4,,6,5,,3,4,,3,4,
{995}5,,,,,,,,,,,,,,,,,,,,,,,,,,,,,,,,,,,,,,,,,,,,,,,,,,,,,,,,,,,,,,,,,,,,,,,,,,,,,,,,,,,
{12}6,
{4}7^4[8:1],,8^3[8:1],3^6[8:1],
{4},1/8,7/2,,
{4}1/5,3/6,4/8,2/7,
{4}6/2,1/4,7/3,8/5-2[10000:833],
{12},,,7-4[10000:833],,1-4[10000:833],,,,5-2[10000:833],,,
{4}4-7[10000:833],5-1[10000:833],,,
{4}6/2h[4:3],5,4,3,
{4}1/8h[4:1],7h[4:1],6h[4:1],5,
{4}4/3h[2:1],7,8h[2:1],1,
{4}2,1b/5b,7b/3b,1b/5b,
E
