&title=超絶!Superlative
&artist=Keitarou Hanada「戦国大戦」
&wholebpm=200
&demo_seek=62.2
&demo_len=19.8
&lv_1=3
&lv_2=6
&lv_3=8+
&lv_4=11+
&lv_5=13
&des_4=mai-Star
&des_5=ニャイン
&inote_1=(200.0){1},,,,,,,,,,,
{4},1,,1,
{4},2,,2,
{4},3,,3,
{4},4,,4,
{4},5,,5,
{4},6,,6,
{4},7,,7,
{4},8,,8,
{4},8,,8,
{4},7,,7,
{4},6,,6,
{4},5,,,
{1}4h[2:1],
{1}3h[2:1],
{1}2h[2:1],
{1}1h[2:1],
{1}8,
{2}7,7,{1},
{2}6,6,
{1}5,
{1}4,
{1}3,
{1}2,
{1}3,
{1}2,
{1}2,
{1}1,
{1}2,
{1}1,
{1}1-4[4:3],,
{1}3-6[4:3],,,,
{1}7-2[4:3],,,,
{1}7h[2:1],
{1}8b,
{4}1,1,,,
{4}2,2,,,
{4}3,3,,,
{4}4,4,,,
{4}3,3,,,
{4}2,2,,,
{1}2h[1:1],,
{4}3,3,,,
{4}4,4,,,
{4}5,5,,,
{4}6,6,,,
{1}7,
{1}8,
{1}1,
{1}2,
{4},1,,1,
{4},2,,2,
{4},3,,3,
{4},4,,4,
{4},5,,5,
{4},6,,6,
{1}7,
{1}8,
{4},8,,7,
{4},6,,5,
{4},4,,3,
{4},4,,5,
{4},6,,5,
{4},4,,3,
{4},2,,1,
{4},8,,8,
{1}8,,
{1}1/8,
{1}1-4[4:3]/8-5[4:3],,
E
&inote_2=(200.0){1},,,,,,,,,,,
{4},2,,3,
{4},2,,1,
{4},8,,8,
{4},7,,7,
{1}6h[4:3],
{1}5h[4:3],
{1}6h[4:3],
{1}8h[4:3],
{4},1,,1,
{4},2,,2,
{4},8,,8,
{4},7,,7,
{1}6-3[2:1],,
{1}2-7[2:1],,
{4},7,,7,
{4},5,,5,
{4},3,,3,
{4},1,,1,
{1}8h[4:3],
{1}7h[4:3],
{1}8h[4:3],
{1}1h[4:3],
{4},2,,3,
{4},2,,1,
{4},8,,7,
{4},6,,5,
{1}4-1[2:1],,
{1}8-5[2:1],
{4},,,1b,
{8}1,,,,,,,2,
{8},,,,,,,3,
{8},,,,,,,2h[8:7],{1},
{8}1,,,,,,,8,
{8},,,,,,,7-3[4:3],{1},
{8},,,,,,,1h[8:7],{1},
{1}1b,
{4},2,,2,
{4},3,,3,
{4},2,,2,
{4},1,,1,
{4},8,,8,
{4},7,,7,
{8}8h[8:5],,,,,,,8b,{1},
{4},1,,1,
{4},3,,3,
{4},5,,5,
{4},7,,7,
{1}1h[4:3],
{1}2h[4:3],
{1}1h[4:3],
{8}8h[8:5],,,,,,,8b,
{4},7,,7,
{4},6,,6,
{4},5,,5,
{4},4,,4,
{4},5,,5,
{4},7,,7,
{8}1h[8:5],,,,,,,1b,
{8},,,,,,,2h[8:3],
{4},,,2,
{4},3,,3,
{4},2,,2,
{4},1,,1,
{1}8h[4:3],
{1}7h[4:3],
{1}6h[4:3],
{8}5h[8:5],,,,,,,4-8[2:1],{1},,
{4}1h[4:7],,,{1},,
E
&inote_3=(200.0){1},,,
{8},,,,,,,1h[1:1],
{8},,,,,,,3-7[4:1],{1},,
{8},,,,,,,5h[1:1],
{8},,,,,,,3h[1:1],
{8},,,,,,,1b,{1},
{8}8h[8:3],,,7h[8:3],,,6,,
{8}8h[8:3],,,1h[8:3],,,2,,
{4}1,1,8,8,
{4}7,7,6,6,
{8}1h[8:3],,,2h[8:3],,,3,,
{8}1,,,8h[8:5],,,,,
{8}7h[8:3],,,5h[8:3],,,
{4}3-8[2:1],{1},
{8}8h[8:3],,,7h[8:3],,,6,,
{8}8h[8:3],,,1h[8:3],,,2,,
{1}3h[1:1],
{1}5h[4:3],
{8}6h[8:3],,,4h[8:3],,,3,,
{8}2h[8:3],,,4h[8:3],,,5,,
{4}4,4,2,2,
{4}8,8,6,6,
{8}8h[8:3],,,1h[8:3],,,2,,
{1}3h[1:1],
{4}4,4,5,5,
{4}4,4,2,2,
{8}8h[8:3],,,7h[8:3],,,6,,
{8}8h[8:3],,,1h[8:5],,,,,
{8}2h[8:3],,,4h[8:3],,,5,,
{1}6h[1649:1229],
{4}8,8,1,1,
{4}2,2,3,3,
{4}1,1,8,8,
{4}7,7,6,6,
{8}5h[8:3],,,4h[8:5],,,3,,
{8}5h[8:3],,,6h[8:3],,,7,,
{1}8-5[2:1],,
{4},2,,3,
{4},2,,3,
{4},2,,1,
{4},7/8,,8b/7b,
{4},6,,5,
{4},6,,5,
{4},6,,7,
{4},8,,1,
{4},2,,1,
{8}1h[2:1],,,,8h[8:3],,,7b,
{8},,,,1h[8:3],,,2,
{8},2,,3,,4,,5h[4:3],
{8},,,,,6,,7h[4:3],
{8},,,,,8,,1h[8:5],
{8},,,,2h[8:3],,,3,
{8},4,,3,,2,,1h[4:3],
{8},,,,,8-4[4:1],,,
{8},,,,,,,5h[1:1],
{8},,,,,,,6,
{8},6,,5,,4,,3h[4:3],
{8},,,,,2,,1h[8:5],
{4},,8,7,
{2}6h[2:1],4h[2:1],
{8}2h[8:3],,,1,,8,,7h[8:5],
{2},6h[2:1],
{2}8h[2:1],1h[2:1],
{4}2,2,3,3,
{4}2,2,1,1,
{4}8,8,7,7,
{4}6,6,5,5,
{8}4h[8:7],,,,,,,5,
{8},6,,7,,8,,1h[4:3],
{8},,,,,2,,4h[8:7],{1},
{4}3,3,1,1,
{4}7,7,5,5,
{4}6,6,8,8,
{4}2,2,4,4,
{2}1h[2:1],8h[2:1],
{8}7h[8:3],,,6,,6,,8h[8:5],
{2},1h[2:1],
{8}2h[2:1],,,,3h[8:3],,,4-8[4:1],{1},,
{8}8/1,1/8,,8/1,,1-4[8:3]/8-5[8:3],,,,,,
E
&inote_4=(200.0){1},
{8},1,2,,8,7,,3,
{8}4,,6,5,,1,8,,
{8}4,5,4,,7,8,,1h[16:15],
{16},,,,,,,,,,,,,2,,,
{8},7,6,,5,4,,3,
{8}2,,8,1,,5,4,,
{8}7,7,6,,6,5,,4h[1:1],
{8},,,,,,,3h[1:1],
{865},,,,,,,,,,,,,,,,,,,,,,,,,,,,,,,,,,,,,,,,,,,,,,,,,,,,,,,,,,,,,,,,,,,,,,,,,,,,,,,,,,,,,,,,,,,,,,,,,,,,,,,,,,,,,,,,,,,,,,,,,,,,,,,,,,,,,,,,,,,,,,,,,,,,,,,,,,,,,,,,,,,,,,,,,,,,,,,,,,,,,,,,,,,,,,,,,,,,,,,,,,,,,,,,,,,,,,,,,,,,,,,,,,,,,,,,,,,,,,,,,,,,,,,,,,,,,,,,,,,,,,,,,,,,,,,,,,,,,,,,,,,,,,,,,,,,,,,,,,,,,,,,,,,,,,,,,,,,,,,,,,,,,,,,,,,,,,,,,,,,,,,,,,,,,,,,,,,,,,,,,,,,,,,,,,,,,,,,,,,,,,,,,,,,,,,,,,,,,,,,,,,,,,,,,,,,,,,,,,,,,,,,,,,,,,,,,,,,,,,,,,,,,,,,,,,,,,,,,,,,,,,,,,,,,,,,,,,,,,,,,,,,,,,,,,,,,,,,,,,,,,,,,,,,,,,,,,,,,,,,,,,,,,,,,,,,,,,,,,,,,,,,,,,,,,,,,,,,,,,,,,,,,,,,,,,,,,,,,,,,,,,,,,,,,,,,,,,,,,,,,,,,,,,,,,,,,,,,,,,,,,,,,,,,,,,,,,,,,,,,,,,,,,,,,,,,,,,,,,,,,,,,,,,,,,,,,,,,,,,,,,,,,,,,,,,,,,,,,,,,,,,,,,,,,,,,,,,,,,,,,,,,,,,,,,,,,,,,,,,,,,,,,,,,,,,,,,,,,,2h[673:588],,,,,,,,,,,,,,,,,,,,,,,,,,,,,,,,,,,,,,,,,,,,,,,,,,,,,,,,,,,,,,,,,,,,,,,,,,,,,,,,,,,,,,,,,,,,,,,,,,,,,,,,,,,{1},
{4}2,1/3,1,2/8,
{4}7,6/8,8,1/7,
{4}3,2/4,6,5/7,
{8}3h[8:3],,,6h[8:3],,,4,,
{4}2,1/2,3,3/4,
{4}5,5/6,8,7/8,
{4}1,1/8,7,1-5[4:3]/8-4[4:3],{1},
{4}3,2/4,7,8/6,
{4}5,6/4,1,2/8,
{4}8,1/7,8/1,2/7,
{1}3h[625:468],
{8}2h[8:3],,,1h[8:3],,,3,,
{8}4h[8:3],,,5h[8:3],,,6,,
{1}3h[4:7],
{1}1h[4:3],
{8}8h[8:3],,,6h[8:3],,,4,,
{8}3h[8:3],,,5,4,5,4,6h[8:7],{1},
{768}3h[8:3],,,,,,,,,,,,,,,,,,,,,,,,,,,,,,,,,,,,,,,,,,,,,,,,,,,,,,,,,,,,,,,,,,,,,,,,,,,,,,,,,,,,,,,,,,,,,,,,,,,,,,,,,,,,,,,,,,,,,,,,,,,,,,,,,,,,,,,,,,,,,,,,,,,,,,,,,,,,,,,,,,,,,,,,,,,,,,,,,,,,,,,,,,,,,,,,,,,,,,,,,,,,,,,,,,,,,,,,,,,,,,,,,,,,,,,,,,,,,,,,,,,,,,,,,,,,,,,,,,,,,,,,,,,,,,,,,,,,,,,,,,,,,,,
{481}2h[1730:651],,,,,,,,,,,,,,,,,,,,,,,,,,,,,,,,,,,,,,,,,,,,,,,,,,,,,,,,,,,,,,,,,,,,,,,,,,,,,,,,,,,,,,,,,,,,,,,,,,,,,,,,,,,,,,,,,,,,,,,,,,,,,,,,,,,,,,,,,,,,,,,,,,,,,,,,,,,,,,,,,,,,,,,,,,,,,,,,,,,,,
{8}1,,
{8}7h[8:3],,,6h[8:3],,,5,,
{8}2h[8:3],,,3h[8:3],,,4,,
{8}8h[8:3],,,1h[8:3],,,2h[4:1],,
{1}3h[4:3],
{8}7h[8:3],,,6h[8:3],,,5,,
{8}2h[8:3],,,3h[8:3],,,4h[1250:313],,
{8}5h[2:1],,,,,2,,1,
{4}8h[2:1],,,7,
{8}7h[8:3],,,2h[938:351],,,3,,
{8}4h[8:3],,,6h[8:3],,,
{4}8h[4:5],{1},
{1}2h[4:3],
{8}7,8,7,8,7,8,7,2,
{8}7,2,7,2,7,2,7,2,
{8}5,2,5,2,5,2,5,3/1,
{8},5/6,,1/8,,3b/4b,,,
{8}2,8,2,8,2,8,2,8,
{8}7,8,7,8,7,8,7,5,
{8}7,5,7,5,7,5,7,5,
{8}3,5,3,5,3,5,3,1,
{8}3,1,3,1,3,1,3,1,
{8}2h[625:313],,,,8h[500:187],,,1b,
{8},,,,8,1,,2h[4:1],
{8},4h[4:1],,6h[4:1],,8h[4:1],,6h[8:9],
{8},,,,,8^3[8:3],,,
{8},,,,4,5,,2/7,
{8},,,,5,7,,1/5,
{8},3/7,,4/8,,6/2,,,
{8}4,5,,2/1,,6/7,,3b/4b,
{653},,,,,,,,,,,,,,,,,,,,,,,,,,,,,,,,,,,,,,,,,,,,,,,,,,,,,,,,,,,,,,,,,,,,,,,,,,,,,,,,,,,,,,,,,,,,,,,,,,,,,,,,,,,,,,,,,,,,,,,,,,,,,,,,,,,,,,,,,,,,,,,,,,,,,,,,,,,,,,,,,,,,,,,,,,,,,,,,,,,,,,,,,,,,,,,,,,,,,,,,,,,,,,,,,,,,,,,,,,,,,,,,,,,,,,,,,,,,,,,,,,,,,,,,,,,,,,,,,,,,,,,,,,,,,,,,,,,,,,,,,,,,,,,,,,,,,,,,,,,,,,,,,,,,,,,,,,,,,,,,,,,,,,,,,,,,,,,,,,,,,,,,,,,,,,,,,,,,,,,,,,,,,,,,,,,,,,,,,,,,,,,,,,,,,,,,,,,,,,,,,,,,,,,,,,,,,,,,,,,,,,,,,,,,,,,,,,,,,,,,,,,,,,,,,,,,,,,,,,,,,,,,,,,,,,,,,,,,,,,,,,,,,,,,,,,,,,,,,,,,,,,,,,,,,,,,,,,,,,,,,,,,,,,,,,,,,,,,,,,,,,,,,,,,,,,,,,,,,,,,,,,,,,,,,,,,,,,,,,,,,,,,,,,,,,,,,,,,,,,,,,7/2,,,,,,,,,,,,,,,,,,,,,,,,,,,,,,,,,,,,,,,,,,,,,,,,,,,
{625},,,,,,,,,,,,,,,,,,,,,,,,,,,,,,,,,,,,,,,,,,,,,,,,,,,,,,,,,,,,,,,,,,,,,,,,,,,,,,,,,,,,,,,,,,,,,,,,,,,,,,,,,,,,,,,,,,,,,,,,,,,,,,,,,,,,,,,,,,,,,,,,,,,,,,,,,,,,,,,,,,,,,,,,,,,,,,,,,,,,,,,,,,,,,,,,,,,,,,,,,,,,,,,,,,,,,,,,,,,,,,,,,,,,,,,,,,,,,,,,,,,,,,,,,,,,,,,,,,,,,,,,,,,,,,,,,,,,,,,,,,,,,,,,,,,,,,,,,,,,,,,,,,,,,,,,
{469}1,,,,,,,,,,,,,,,,,,,,,,,,,,,,,,,,,,,,,,,,,,,,,,,,,,,,,,,,,,,
{8}8,,1-5[8:1],
{8},8-4[8:1],,2-6[8:1],,7-3[8:1],,2h[8:7],
{8},,,,,,3,3h[8:5],
{4},,5,6,
{2}6^3[8:1],2^7[8:1],
{8}3/7,,,6/2,,5/1,,4h[8:3]/8h[8:3],
{4},,2h[2:1],3,
{8}3h[2:1],,4,,4h[4:1],,,6b/5b,
{8},,,,1,8,,7h[4:1],
{8},5h[4:1],,3h[4:1],,1h[4:1],,3h[8:9],
{8},,,,,2^7[8:3],,,
{8},,,,6,5,,5/6,
{8},,,,2,1,,1/2,
{8},7/5,,3/4,,1/7,,,
{8}4,5,,4/5,,6/7,,2b/1b,
{653},,,,,,,,,,,,,,,,,,,,,,,,,,,,,,,,,,,,,,,,,,,,,,,,,,,,,,,,,,,,,,,,,,,,,,,,,,,,,,,,,,,,,,,,,,,,,,,,,,,,,,,,,,,,,,,,,,,,,,,,,,,,,,,,,,,,,,,,,,,,,,,,,,,,,,,,,,,,,,,,,,,,,,,,,,,,,,,,,,,,,,,,,,,,,,,,,,,,,,,,,,,,,,,,,,,,,,,,,,,,,,,,,,,,,,,,,,,,,,,,,,,,,,,,,,,,,,,,,,,,,,,,,,,,,,,,,,,,,,,,,,,,,,,,,,,,,,,,,,,,,,,,,,,,,,,,,,,,,,,,,,,,,,,,,,,,,,,,,,,,,,,,,,,,,,,,,,,,,,,,,,,,,,,,,,,,,,,,,,,,,,,,,,,,,,,,,,,,,,,,,,,,,,,,,,,,,,,,,,,,,,,,,,,,,,,,,,,,,,,,,,,,,,,,,,,,,,,,,,,,,,,,,,,,,,,,,,,,,,,,,,,,,,,,,,,,,,,,,,,,,,,,,,,,,,,,,,,,,,,,,,,,,,,,,,,,,,,,,,,,,,,,,,,,,,,,,,,,,,,,,,,,,,,,,,,,,,,,,,,,,,,,,,,,,,,,,,,,,,,,,,1,,,,,,,,,,,,,,,,,,,,,,,,,,,,,,,,,,,,,,,,,,,,,,,,,,,
{8},,,,3,2,,1-5[8:1],
{8},8-4[8:1],,7-3[8:1],,6-2[8:1],,1h[8:7],
{8},,,,,,2,2h[8:5],
{4},,3,4,
{2}5^2[8:1],1^6[8:1],
{8}5/1,,,4/8,,7/3,,2h[8:3]/6h[8:3],
{4},,5h[2:1],4,
{8}4h[2:1],,3,,3h[4:1],,,2h[8:13]/1h[8:13],{1},,
{8}6/2,4/8,,5/1,,7/3,,2/6,
{1}5b/8b,
E
&inote_5=(200.0){1},
{8},1,2,,2,3,,3,
{8}4,,4,5,,3,1h[4:1],,
{8}8,8,7,,8,1,,2h[8:9],{1},
{8},2,3,,2,1,,8,
{8}7,,7,6,,7,1h[4:1],,
{8}2,2,3,,1,8,,7h[1:1],
{8},,,,,,,5h[1:1],
{8},,,,,,,3h[8:7],{1},
{8}2-6[8:1],,,1h[8:3],,,8,,
{8}7-3[8:1],,,4h[8:3],,,5,,
{8}6-2[8:1],,,1h[8:3],,,8,,
{8}7-4[8:1],,,8h[8:3],,,1b,,
{8}2,4,3,5,4,6,5,7,
{8}6,1,8,2,1,3,2,4,
{8}2,8,1,7,8,6,7,5,
{8}7,8,1,2,3,4,5,6,
{8}6-2[8:1],,,6-1[8:1],,,8h[4:1],,
{8}7-3[8:1],,,7-4[8:1],,,5h[4:1],,
{8}6-2[8:1],,,1-5[8:1],,,8h[4:1],,
{8}7-2[8:1],,,3-8[8:1],,,1h[4:1],,
{2}2-6[8:1],3-7[8:1],
{2}4-8[8:1],5-1[8:1],
{4}2-6[8:1],8-4[8:1],6-2[8:1],4-8[8:1],
{8}7-3[8:1],,,6-2[8:1],,,8b,,
{4}2,4/2,5,2/6,
{4}4,8/2,6,1/4,
{4}6,3/7,2,4/2,
{4}5,6/2,4,7/3,
{8}6,4,6,4,5,3,5,3,
{8}1,3,1,2,8,2,8,3,
{8}1,3,1,4,6,5,7,6,
{8}8,7,1,8,2,1,1-4[8:1],,
{8},,6,2h[8:3],,,4-1[8:1],,
{8},,8,7h[8:3],,,6-3[8:1],,
{4},4-1[8:1],,8-4[8:1],
{4},7-2[8:1],,1b,
{8}8/7h[8:3],,,5h[8:3],,,3,,
{8}1/2h[8:3],,,4h[8:3],,,6,,
{8}4,3,4,3,3,2,3,2,
{8}2/1,8,7,5/6,7,1,2,4/3,
{8}5h[4:3],,,,,,4,3h[8:7],
{8},,,,,,1,7h[8:7],
{8},,,,,,1,2/4,
{8},3/6,,2/1,,1/8,8b,,
{8}6h[4:3],,,,,,5,3h[8:7],
{8},,,,,,1,1,
{8}2,4,3,5,3,5,4,6,
{8}4,6,5,7,5,7,6,8,
{8}1,7,8,6,7,5,6,4,
{8}2b/8b,,,,1b/7b,,,2h[8:5],
{8},,,,3,3,,2/1,
{8},7/8,,6/4,,5/3,,4/2h[8:5],
{8},,,,,3/5,,6h[8:3]/4h[8:3],
{8},,,,7,7-3[8:1],,,
{8},,8h[4:1],,1,1,,7/8,
{8},5/6,,3/4,,1-6[4:1]/2-5[4:1],,,
{8},,,,,7b/8b,,3b/4b,
{8},,,,,,,4-8[8:1],
{8},,,,1-6[8:1],1,,,
{8}6-2[8:1],1,,,2-7[8:1],1,,,
{8}8-3[8:1],7,,,3-7[8:1],7,,,
{8}5-1[8:1],3,,,1-5[8:1],7,,,
{4}8-4[8:1],1-5[8:1],2-6[8:1],3-7[8:1],
{4}4-8[8:1],5-2[8:1],1-6[8:1],,
{2}4h[2:1],3h[2:1],
{8}2h[2:1],,,,1h[4:1],,,7-4[8:1]/8-3[8:1],
{8},,,,3/1-6[8:1],1,,,
{8}5/6-2[8:1],1,,,7/2-7[8:1],1,,,
{8}4/8-3[8:1],7,,,5/3-7[8:1],7,,,
{8}6/5-1[8:1],8,,,1,1-4[8:1],,,
{8},,1h[4:1],,4,1,,5/3,
{8},6/2,,5/1,,4^7[4:1]/8^3[4:1],,,
{8},,,,,6b/2b,,5b/1b,
{8},,,,,,,4-8[8:1],
{8},,,,1-6[8:1],1,,,
{8}6-2[8:1],1,,,2-7[8:1],1,,,
{8}8-3[8:1],7,,,3-7[8:1],7,,,
{8}5-1[8:1],3,,,1-5[8:1],7,,,
{4}8-4[8:1],1-5[8:1],2-6[8:1],3-7[8:1],
{4}4-8[8:1],5-2[8:1],1-6[8:1],,
{2}4h[2:1],3h[2:1],
{8}2h[2:1],,,,1h[8:3],,,8-5[2:1],{1},,
{8}4/8,3b/6b,,5b/2b,,8b/6b,,4b/1b,
E
