&title=炎歌 -ほむらうた-
&artist=Hiro/森山愛子
&wholebpm=108
&demo_seek=77.4
&demo_len=17.3
&lv_1=2
&lv_2=4
&lv_3=7
&lv_4=12
&lv_5=13+
&des_4=譜面-100号
&des_5=はっぴー
&inote_1=(108.0){1},,
{1}8,,
{1}1,,
{1}2,,
{1}3,,
{1}2,
{1}2,
{1}1,
{1}1,
{1}8,
{1}8,
{1}7,
{2}7,7,
{1}6,
{1}6,
{1}5,
{1}5,
{1}4,
{1}4,
{2}3,3,
{1}3h[2:1],
{1}3-6[4:3],,
{1}7-2[4:3],,
{1}1-4[4:3],,
{2}4,4,
{1}4,
{1}3b,
{2}2,2,
{1}2,
{1}1,
{1}1,
{2}8,8,
{1}8,
{1}7,
{1}7,
{1}6,
{1}6,
{2}7,7,
{1}7-2[4:3],
{4},,,3b,
{4},2,,2,
{4},3,,3,
{4},4,,4,
{4},5,,5,
{4},6,,6,
{4},7,,7,
{1}7,
{1}8/1,
E
&inote_2=(108.0){1},,
{4},1,1,1,
{4},2,2,2,
{4},1,1,1,
{4},8,8,8,
{4},7,7,7,
{4},6,6,6,{1},
{1}1b,
{4},2,,2,
{4},3,,3,
{4},2,,2,
{4},1,,1,
{4},8,,8,
{4},7,,7,
{4},8,,1-4[2:1],{1},
{4},5,5,5,
{4},6,6,6,
{4},5,5,5,
{4},4,4,4,
{4},3,3,3,
{4},2,2,2,
{4},8/1,,8/7,
{4},1,,1b,
{1}2-7[2:1],
{4},7,,7,
{1}6-3[2:1],
{4},3,,3,
{1}2-7[2:1],
{4},7,,7,
{2}6h[4:1],5h[4:1],
{4}8,8,1,1b,{1},
{4}1,1/2,1,1/8,
{4}1,1/2,2/3,,
{2}4h[4:1],5h[4:1],
{1}6h[4:3],
{4}5,4/5,5,6/5,
{4}5,4,3h[4:1],,
{1}4h[4:3],
{1}5h[4:3],
{1}6-1[2:1],
{1}1h[4:3],
{2}1/8,1/2,
{1}2h[4:3]/3h[4:3],
{1}8b/1b,
{4},1,1,1,
{4},2,2,2,
{4},1,1,1,
{4},8,8,8,
{4},7,7,7,
{4},6,6,6-1[2:1],{1},
{4}1h[4:7],,,{1},,
E
&inote_3=(108.0){1},,
{8},2,2,2,3,3,3,4,
{8},1,1,1,8,8,7,6,
{8},7,7,7,8,8,8,1,
{8},8,8,8,7,7,6,5,
{8},4,4,4,3,4,5,6,
{8},4,4,4,3,3,2,1,
{8}8-5[8:1],,,,,,1,1b,{1},
{8},2,2,2,3,3,3,4,
{2}5h[2:1],6h[2:1],
{8},8,8,8,7,7,6,5,
{1}4h[4:3],
{8},5,5,5,6,6,7,8,
{2}1h[2:1],2h[2:1],
{2}8h[2:1],6h[2:1],
{2}4h[2:1],2h[2:1],
{8}1b,8,8,8,7,7,6,5,
{2}4h[2:1],3h[2:1],
{8},4,4,4,5,5,6,7,
{1}8h[4:3],
{8},1,1,1,2,2,3,4,
{2}5h[2:1],7h[4:1],
{4}6,6,4,4,
{4}1/2,8/1,7/8,7/6,
{4}8h[4:1],1h[4:1],2h[4:1],3h[1:1],{1},
{4}1h[4:1],7h[4:1],5h[4:1],4h[4:1],
{1}3h[4:3],
{4}4h[4:1],5h[4:1],6h[4:1],7h[1:1],
{4},,,8-4[4:1],
{4},1-5[4:1],,2-6[4:1],{1},
{1}8b,
{8}1,1,2,2,1,1,2,2,
{8}1,1,8,8,7-2[4:1],,,,
{8},3,3,3,4,4,5,6,
{1}7h[4:3],
{8}8,8,7,7,8,8,7,7,
{8}8,8,1,1,2-6[4:1],,,,
{8}5,5,4,4,5,5,6,6,
{2}7-2[4:1],3-6[4:1],
{2}5h[2:1],4h[2:1],
{2}5h[2:1],6h[2:1],
{2}7-3[4:1],2-6[4:1],
{1}8h[1:1],
{1}1b,
{8},2,2,2,3,3,3,4,
{8},1,1,1,8,8,7,6,
{8},7,7,7,8,8,8,1,
{8},8,8,8,7,7,6,5,
{8},4,4,4,3,4,5,6,
{8},4,4,4,3,3,2,1,
{1}8-5[4:1],
{1}1b,
E
&inote_4=(108.0){1},
{16}2,3,1,2,8,1,7,8,6-2[8:1],,,,,,,,
{8}1,1,1/3,1,2,2,2/4,2,
{8}8,8,8/6,8,7,7,7/5,6,
{8},3,3/5,3,6,6,6/4,6,
{8}5,5,5/7,5,4,4,4/2,3,
{8},8,8/6,6,7,7,1/7,2,
{8},1,1/3,3,2,2,2/8,7,
{8}6,,6,,6,,6,6-2[8:5],
{8},1,8,7,6,5,4,3,
{16},,1,,1,,2,,2,,3,,3,4,3,2,
{8}1h[2:1],,,4,4h[2:1],,,,
{16},,8,,8,,7,,7,,6,,6,5,6,7,
{1}6^3[4:1],
{16},,2,,2,,1,,1,,8,,8,7,6,7,
{16}8h[2:1],,,,,,5,,5h[4:1],,,,,,8,1,
{8}3^6[4:1],,,,,,,7-3[8:1],
{8}7,,,2-6[8:1],2,,,,
{16},,8,7,8,,1,8,1,,2,,2,3,2,1,
{8}8h[8:3],,,1h[8:5],4h[2:1],,,,
{16},,1,2,1,,8,1,8,,7,,7,6,5,6,
{2}5^2[8:1],1^6[8:1],
{16},,4,5,6,,3,4,5,,2,3,4,5,4,3,
{16}2h[8:3],,,,,,4h[8:3],,5h[2:1],,,,,,7,7,
{16}7h[2:1],,,,,,2,2,2h[8:3],,,,,,8-5[4:1],1-4[4:1],
{1}8,
{4}2/1,1/8,8/7,7h[1:1]/6-1[4:3],{1},
{4}3/2,3/4,5/4,6/5,
{1}6h[4:3]/7-4[2:1],
{4}8/7,8/1,1/2,2h[1:1]/3-8[4:3],
{16},,,,,,,,,,,,,,6/1,7/8,
{16}6b/1b,,,,,,3/8,1/2,8b/3b,,,,,,1^4[8:11]/8^5[8:11],7/2,
{1}8b/1b,,
{4}1-5[16:1],2-6[16:1],3-7[16:1],4-8[16:1],
{4}3-7[16:1],2-6[16:1],1^4[8:1],,
{16},,6,5,4,,3,4,5,,8,7,6,,1,2,
{1}3^6[2:1],
{4}1-5[16:1],8-4[16:1],1-6[16:1],8-3[16:1],
{4}1-5[16:1],8-3[16:1],2^7[8:1],,
{8}3,4,6,5,2,1,8,7,
{8}8-5[4:1],,,,,,,5/6,
{8}7h[4:1]/4h[4:1],,,3/4,2h[4:1]/5h[4:1],,,8/7,
{16}6h[4:1]/1h[4:1],,,,,,2/1,,8h[4:1]/3h[4:1],,,,,,1,8,
{16}7h[2:1],,,,,,5,4,3,,,,1^6[1:1]/5^2[1:1],,
{8}2/6,{1},,
{8}7,7/3,3/6,6/2,5/2,1/5,4/1,4,
{8}8,4/8,7/4,3/7,6/3,6/2,5/2,5,
{8}1,5/1,5/2,6/2,6/3,7/3,7/4,4,
{8}2,2/6,3/6,7/3,4/7,4/8,5/8,5,
{8}7,7/1,6/1,6/8,8/5,5/7,4/7,4,
{8}2,2/8,3/8,1/3,4/1,4/2,5/2,5,
{16}8,7,1,8,2,8,1,7,8,7,1,6,2,5,3,4,
{1}5h[1:1],,
E
&inote_5=(108.0){1},,
{8},3h[4:1],2,1h[4:1],8,7h[4:1],6,5h[4:1],
{8}6,6h[4:1],7,8h[4:1],1,2h[4:1],3,,
{8},7h[4:1],6,5h[4:1],4,3h[4:1],2,1h[4:1],
{8}2,2h[4:1],3,4h[4:1],5,6h[4:1],7,,
{8},1h[4:1],2,3h[4:1],4,8h[4:1],7,6h[4:1],
{8}5,2h[4:1],1,5h[4:1],4,8h[4:1],7,6h[1:1],
{8}4,,4,,4,,4,4b,
{1}8-4[2:1],
{16},,1,,1,,8,,8,,7,,7,6,5,4,
{2}3-8[4:1],5,
{16},,8,,8,,1,,1,,2,,2,3,4,5,
{2}6-1[4:1],4,
{16},,7,,7,,6,,6,,5,,5,4,3,2,
{16}1-6[4:1],,,,,,,,4,,,,,,8/1,3-6[16:5],
{8}3^6[4:1],,,,,4,3,2,
{4}1-5[8:1],7-3[8:1],8-4[8:1],2-6[8:1],
{8},1,1-6[8:1],1,,2,2-5[8:1],2,
{8},7,7-4[8:1],7,,8,8-3[8:1],8,
{8},1,1^6[8:1],1,,2,2^5[8:1],2,
{8},7,7^4[8:1],7,,8,8^3[8:1],,
{8},1,1^4[8:1],1,,6,6^3[8:1],6,
{16},,7,,7^2[8:1],,7,,,,4,,4,,8-4[8:1],8b,
{16}8-5[8:1],,,,,,1-4[8:1],1b,1-5[8:1],,,,,,1-4[8:5],8-5[16:9],
{1}1b,
{4}7h[4:1],6h[4:1],5-2[8:1],5,
{16}2,2,3^6[4:1],2,,,,,,,,,,,3,2,
{4}1h[4:1],2h[4:1],3h[4:1],4-7[2:1],
{1}4h[2:1],
{4}6h[4:1],5h[4:1],4-1[8:1],4,
{16}6,6,5^2[4:1],6,,,,,,,,,,,8^3[8:1],8,
{16}3^6[8:1],,,,,,1^6[8:1],1,6^3[8:1],,,,,,2^5[8:1],2,
{1}5-1[2:1],,
{8}6^1[4:1],6,1-5[4:1],1,5^2[4:1],5,2-7[4:1],2,
{8}7^4[4:1],7,4-8[4:1],4,8^3[4:1],8,,,
{16},,1,,2,,3,,8,,7,7,6,,5-1[8:3],,
{1}5h[2:1],
{8}8^5[4:1],8,5-1[4:1],5,1^4[4:1],1,4-8[4:1],4,
{8}8^5[8:1],5-1[8:1],1^4[8:1],4-8[4:1],,,,,
{16}8,,8,7,6,,6,,3-8[8:1],,3,,5^2[2:1],,5,,
{4},,,7-2[8:1]/8-5[8:1],
{4},3-6[8:1]/4-1[8:1],,1-4[8:1]/2-7[8:1],
{16},,,,5-8[8:1]/6-3[8:1],,,,,,,,,,8-3[8:1],8,
{16}7^4[8:1],,,,,,1-6[8:1],1,2^5[8:1],,,,,,8-4[8:5],,
{16}8h[4:3],,,,,,,,,,,,,,6,7,
{8}8-4[4:1],8,1,7,2,6,3,5b,
{8},2^5[8:1],2,2^7[8:1],2,6^3[8:1],6,6^1[8:1],
{8}6,2^5[8:1],2,2^7[8:1],2,6>2[8:1],6,,
{8},7^2[8:1],7,7^4[8:1],7,3^8[8:1],3,3^6[8:1],
{8}3,7^2[8:1],7,7^4[8:1],7,3^8[8:1],3,,
{8},1-5[16:1],1^4[16:1],1-6[16:1],1-4[16:1],1-5[16:1],1,,
{8},8-3[16:1],8^5[16:1],8-4[16:1],8-5[16:1],8-3[16:1],8,,
{16}1,6,8,2,7,1,8,3,1,6,7,3,2,8,6,7,
{1}3h[1:1],,
E
