&title=泣き虫O'clock
&artist=Hiro/友香
&first=0
&des=
&wholebpm=152
&demo_seek=53.7
&demo_len=23.6
&des_4=ニャイン
&des_5=mai-Star
&des_6=ロシェ@ペンギン
&lv_1=2
&lv_2=4
&lv_3=8
&lv_4=10+
&lv_5=13
&lv_6=12+
&inote_1=(152.0){1},3,
{1}3,
{1}3,
{1}3,
{1}2,
{1}2,
{1}2,
{1}2,
{1}1,
{1}8,
{1}7,
{1}6,
{1}5,
{1}4,
{1}3,
{1}2,
{1}2-7[4:3],,
{1}6-3[4:3],,
{1}2-6[4:3],,
{1}7-3[10000:7667],,
{2},2,
{2}2,2,
{2},3,
{2}3,3,
{1}4,
{4}5,5,,,
{4}6,6,,,
{1}7h[2:1],
{1}8b,
{4},1,,1,
{4},2,,2,
{4},3,,3,
{4},4,,4,
{4},5,,5,
{4},6,,6,
{1}6,
{4},7,,7,
{1}7,
{4},8,,8,
{1}8,
{4},1,,1,
{2}1,2,
{2}2,3,
{1}3,
{1}4h[4:3],
{4},5,,5,
{1}5,
{4},6,,6,
{1}6,
{4},7,,7,
{4},8,,8,
{1}8,
{4},1,,1,
{1}1,
{4},2,,2,
{1}2,
{4},3,,3,
{4},2,,2,
{4},1,,1,
{1}1b,,
{1}1,
{1}1/8,
{1}7,
{1}7/8,
{1}6,
{2}5,5,
{1}5,,
{1}4,
{1}3,
{1}2,
{1}1,
{2}2,2,
{2}1,1,
{4}8,8,8,,
{4}7,7,7,
E
&inote_2=(152.0){1},,,,,
{2}8,8,
{2}1,1,
{2}2,2,
{1}1b,
{4},7,,7,
{4},6,,6,
{4},7,,7,
{4},8,,8,
{4},1,,1,
{4},3,,3,
{4},7,,7,
{4},1,,1,
{4},8,,8,
{4},7,,7,
{4},2,,2,
{4},3,,3,
{4},1,,1,
{4},8,,8,
{4},7,,1,
{4},3,,5,
{1}5h[4:3],
{1}4-8[2:1],,
{1}7-3[2:1],,
{1}4h[4:3],
{1}5h[4:3],
{2}5,3,
{1}1b,
{4},8,8,8,
{4},7,7,7,
{4},8,8,8,
{4},1,1,1,
{4},2,,3,
{4},2,,1-4[2:1],{1},,
{4},6,6,6,
{4},2,2,2,
{4},8,8,8,
{4},1,1,1,
{4},2,,2,
{4},3,,3,
{4},2,,2,
{4},1,,8b,
{4},7,7,7,
{4},6,6,6,
{4},8,8,8,
{4},1,1,1,
{4},2,,2,
{4},3,,3,
{4},2,,2,
{4},8,,8b/1b,
{4},8,,7,
{4},6,,5,
{4},4,,3,
{4},2,,1,
{4},2,
{501}2,,,,,,,,,,,,,,,,,,,,,,,,,,,,,,,,,,,,,,,,,,,,,,,,,,,,,,,,,,,,,,,,,,,,,,,,,,,,,,,,,,,,,,,,,,,,,,,,,,,,,,,,,,,,,,,,,,,,,,,,,,,,,
{499}2,,,,,,,,,,,,,,,,,,,,,,,,,,,,,,,,,,,,,,,,,,,,,,,,,,,,,,,,,,,,,,,,,,,,,,,,,,,,,,,,,,,,,,,,,,,,,,,,,,,,,,,,,,,,,,,,,,,,,,,,,,,,,
{4},4,4,4,
{4},2,2,2,
{4},8,8,8,
{1}7h[4:7],,
{1}6h[4:7],,
{4},8,,8,
{4},1,,1,
{4},2,,2,
{4},3,,3-8[2:1],{1},
{4},,,7-4[2:1],{1},,
{2}1,1,
{2}8,8,
{2}7,7,
{4}6-1[2:1],,,,
E
&inote_3=(152.0){1},
{4}1,8,7h[4:1],,
{4}8,1,2h[4:1],,
{4}1,8,7h[4:1],,
{2}2h[4:1],7h[4:1],
{4}4,5,6h[4:1],,
{4}5,4,3h[4:1],,
{4}4,5,6h[4:1],,
{2}3h[4:1],6h[4:1],
{4}8,8,7h[4:1],6,
{278}6,,,,,,,,,,,,,,,,,,,,,,,,,,,,,,,,,,,,,,,,,,,,,,,,,,,,,,,,,,,,,,,,,,,,,5h[1389:697],,,,,,,,,,,,,,,,,,,,,,,,,,,,,,,,,,,,,,,,,,,,,,,,,,,,,,,,,,,,,,,,,,,,,,,,,,,,,,,,,,,,,,,,,,,,,,,,,,,,,,,,,,,,,,,,,,,,,,,,,,,,,,,,,,,,,,,,,,,,,,,,,,,,,,,,,,,,,,,,,,,,,,,,,,,,,,,,,,,,,,,,,,,,,,,,,,,,,,,,,,,,,,,,,
{4}1,1,2h[4:1],3,
{4}3,4h[2:1],,,
{4}8,8,7h[4:1],6,
{625}6,,,,,,,,,,,,,,,,,,,,,,,,,,,,,,,,,,,,,,,,,,,,,,,,,,,,,,,,,,,,,,,,,,,,,,,,,,,,,,,,,,,,,,,,,,,,,,,,,,,,,,,,,,,,,,,,,,,,,,,,,,,,,,,,,,,,,,,,,,,,,,,,,,,,,,,,,,,,5h[625:469],,,,,,,,,,,,,,,,,,,,,,,,,,,,,,,,,,,,,,,,,,,,,,,,,,,,,,,,,,,,,,,,,,,,,,,,,,,,,,,,,,,,,,,,,,,,,,,,,,,,,,,,,,,,,,,,,,,,,,,,,,,,,,,,,,,,,,,,,,,,,,,,,,,,,,,,,,,,,,,,,,,,,,,,,,,,,,,,,,,,,,,,,,,,,,,,,,,,,,,,,,,,,,,,,,,,,,,,,,,,,,,,,,,,,,,,,,,,,,,,,,,,,,,,,,,,,,,,,,,,,,,,,,,,,,,,,,,,,,,,,,,,,,,,,,,,,,,,,,,,,,,,,,,,,,,,,,,,,,,,,,,,,,,,,,,,,,,,,,,,,,,,,,,,,,,,,,,,,,,,,,,,,,,,,,,,,,,,,,,,,,,,,,,,,,,,,,,,,,,,,,,,,,,,,,,,,,,,,,,,,,,,,,,,,,,,,,,,,,,,,,,,,,,,,,,,,,,,,,,,,,,,,,,,,
{4}4h[4:1],
{249}3,,,,,,,,,,,,,,,,,,,,,,,,,,,,,,,
{751}3h[2000:751],,,,,,,,,,,,,,,,,,,,,,,,,,,,,,,,,,,,,,,,,,,,,,,,,,,,,,,,,,,,,,,,,,,,,,,,,,,,,,,,,,,,,,,,,,,,,,,,,,,,,,,,,,,,,,,,,,,,,,,,,,,,,,,,,,,,,,,,,,,,,,,,,,,,,,,,,,,,,,,,,,,,,,,,,,,,,,,,,,,,,,,,,,,,,,,,,,,,,,,,,,,,,,,,,,,,,,,,,,,,,,,,,,,,,,,,,,,,,,,,,,,,,,,,,,,,,,,,,,,,,,,,,,,,,,,,,,,,,,,,,,
{891}2,,,,,,,,,,,,,,,,,,,,,,,,,,,,,,,,,,,,,,,,,,,,,,,,,,,,,,,,,,,,,,,,,,,,,,,,,,,,,,,,,,,,,,,,,,,,,,,,,,,,,,,,,,,,,,,,
{893}2h[1607:1405],,,,,,,,,,,,,,,,,,,,,,,,,,,,,,,,,,,,,,,,,,,,,,,,,,,,,,,,,,,,,,,,,,,,,,,,,,,,,,,,,,,,,,,,,,,,,,,,,,,,,,,,,,,,,,,{1},
{4}5,5,6h[4:1],7,
{4}7,8h[2:1],,,
{4}4,4,3h[4:1],2,
{4}2,1h[2:1],,,
{4}5,5,6h[4:1],7,
{4}7,8h[4:3],,,
{4}1h[4:1],
{625}2,,,,,,,,,,,,,,,,,,,,,,,,,,,,,,,,,,,,,,,,,,,,,,,,,,,,,,,,,,,,,,,,,,,,,,,,,,,,,,,
{803}2h[1250:467],,,,,,,,,,,,,,,,,,,,,,,,,,,,,,,,,,,,,,,,,,,,,,,,,,,,,,,,,,,,,,,,,,,,,,,,,,,,,,,,,,,,,,,,,,,,,,,,,,,,,,,,,,,,,,,,,,,,,,,,,,,,,,,,,,,,,,,,,,,,,,,,,,,,,,,,,,,,,,,,,,,,,,,,,,,,,,,,,,,,,,,,,,,,,,,,,,,,,,,,,,,,,,,,,,,,,,,,,,,,,,,,,,,,,,,,,,,,,,,,,,,,,,,,,,,,,,,,,,,,,,,,,,,,,,,,,,,,,,,,,,,,,,,,,,,,,,,,,,,,
{417}3,,,,,,,,,,,,,,,,,,,,,,,,,,,,,,,,,,,,,,,,,,,,,,,,,,,,
{415}3h[417:365],,,,,,,,,,,,,,,,,,,,,,,,,,,,,,,,,,,,,,,,,,,,,,,,,,,,{1},
{1}1b,
{2}6h[8:3],6,
{2}3h[8:3],3,
{2}7h[8:3]/6h[8:3],7/6,
{2}2h[8:3]/3h[8:3],2/3,
{4}5,5/6,5,5/6,
{4}4,4/3,4,4/3,
{1}2^7[4:1],
{1}7^2[4:1],
{4}6h[4:1],7,8,1,
{4}3h[4:1],2,1,8,
{4}1h[4:1],8,7,6,
{4}8h[4:1],1,2,3,
{4}5h[4:1],6,7,8,
{4}1h[4:1],2,3,4,
{1}5-1[4:1],
{4}6h[4:1],7,8,1/8,
{4}3h[4:1],2,1,8/1,
{4}1h[4:1],8,7,6/8,
{4}8h[4:1],1,2,1/3,
{4},2-5[4:1],,7,
{4}7,7-4[4:1],,2,
{4}2,2-5[4:1],,7,
{1}7h[4:3],
{8}8b/7b,,,8b/1b,,,2b/1b,,
{8},,1,1,8,,7,7,
{1}6h[4:3],
{8},,8,8,1,,2,2,
{1}3h[4:3],
{8},,8,8,7,7,6,6,
{8}5,,2,2,3,3,4,4,
{1}4-8[2:1],
{8},,6,6,5,5,4,4,
{1}3h[4:3],
{8},,3,3,4,4,5,5,
{8}6h[4:3],,,5h[8:3],,,,8/7,
{8},1/2,,3/4,,,3h[4:1],,
{4}2,8h[4:1],7,6h[4:1],
{4}7,2h[4:1],1h[4:1],8-5[2:1],{1},
{1}1^6[2:1],
{2}8h[8:3],8,
{2}1h[8:3],1,
{2}2h[8:3],1/3,
{2}3h[8:3],4/2,
{8}4h[4:1],,,4,4,,,,
{8}5h[4:1],,,5,5,,,,
{8}6h[4:1],,,6,6-2[4:1],,,,
{8}3h[4:1],,,3,3-7[4:1],,,,
{4}2,2,1h[4:1],3,
{4}7,7,8h[4:1],6,
{4}3,3,4h[4:1],2,
{4}6,6,5h[4:1],7,
{4}1,1,2^5[4:1],,
{4}8,8,7^4[4:1],,
{4}2,2,1^4[4:1],,
{8},5,5,
{993}6,,,,,,,,,,,,,,,,,,,,,,,,,,,,,,,,,,,,,,,,,,,,,,,,,,,,,,,,,,,,,,,,,,,,,,,,,,,,,,,,,,,,,,,,,,,,,,,,,,,,,,,,,,,,,,,,,,,,,,,,,,,,
{999}6,,,,,,,,,,,,,,,,,,,,,,,,,,,,,,,,,,,,,,,,,,,,,,,,,,,,,,,,,,,,,,,,,,,,,,,,,,,,,,,,,,,,,,,,,,,,,,,,,,,,,,,,,,,,,,,,,,,,,,,,,,,,,
{4}7,8b/1b,
E
&inote_4=(152.0){1},8h[1:1],
{1}1h[1:1],
{1}2h[1:1],
{1}3h[1:1],
{4}2,2,8,8,
{4}1,1,7,7,
{4}3,3,5,5^2[4:1],{1},
{8}1,2,3,4,2h[4:1],,1,8h[4:1],
{8},7,7h[2:1],,,,,,
{8}6,6,5,5,4,,7,7h[4:1],
{8},1,1h[2:1],,,,,,
{8}2,3,4,5,6h[4:1],,5,5,
{8},4,4h[2:1],,,,,,
{8}8h[4:1],,7,7h[8:3],,,6,6h[8:7],{1},
{8}7,8,1,2,3h[4:1],,1,8h[4:1],
{8},7,7h[2:1],,,,,,
{8}8,8,1,1,2h[4:1],,8,8h[4:1],
{8},7,7h[2:1],,,,,,
{8}1,2,3,4,5h[4:1],,4,4,
{8},3,3h[2:1],,,,,,
{8}6h[4:1],,2,2h[8:3],,,8,8-5[2:1],{1},
{1}1b,
{8}1h[4:1],,2,1h[8:3]/3h[8:3],,,,,
{8}7h[4:1],,6,7h[8:3]/5h[8:3],,,,,
{8}2h[4:1],,3,2h[8:3]/4h[8:3],,,,,
{8}6h[4:1],,5,4h[8:3]/6h[8:3],,,,,
{8}5h[4:1],,1,1h[4:1],,8,,,
{8}2h[4:1],,3,3h[4:1],,2,1,8h[8:7],
{4},,,7-2[8:1],
{8},1-4[8:1],1,,,,,,
{8}8h[4:1],,7,6,7,8,1,2,
{2}3h[4:3]/4-8[8:1],8^5[8:1],
{8}2h[4:1],,1,8,1,2,3,4,
{2}6h[4:3]/5-1[8:1],1^4[8:1],
{8}7h[4:1],,8,8,1,1,8,7,
{8}6h[8:3],,,8,8,1,2,3,
{16}2/1,,,7/8,,,1h[8:5]/8h[8:5],,,,,,,,,,
{8},,1,2,3,2,1,8,
{2}7h[4:3]/6-1[8:1],1-5[8:1],
{8}3-8[8:1],,1,1,2,3,4,5,
{8}6h[8:3],,,7h[8:5],,,,,
{8},,8,8,1,2,1,8,
{8}7h[4:1],,1,2,3,4,5,6,
{8}7h[4:1],,6,6,4,4,8,8,
{1}1h[4:3],
{8}3-8[8:1],,,5-1[8:1],,,2h[4:1],,
{8}1h[4:1],,2,3,4,5,4,2,
{2}8h[4:1]/7-2[8:1],8-5[8:1],
{8}1h[4:1],,2,3,2,1,2,4,
{2}6h[4:1]/7-4[8:1],6-1[8:1],
{8}4h[4:1],,3,2,3,4,5,6,
{8}7h[8:3],,,1,1,8,7,6,
{16}7/8,,,1/2,,,3-8[4:1]/4-7[4:1],,,,,,,,,,
{8},,8,7,6,7,8,1,
{2}2h[4:3]/3-8[8:1],8-4[8:1],
{8}6-1[8:1],,8,8,7,6,5,4,
{8}3h[8:3],,,2h[8:3],,,,4/3,
{8},5/6,,8h[8:3]/7h[8:3],,,,,
{8}1b,,8,7,6,5,4,3,
{8}2b,,3,3,5,5,1,1,
{1}8h[4:5],
{4},,1,2,
{8}3,,1,1h[4:1],,8,,7h[8:7],
{769},,,,,,,,,,,,,,,,,,,,,,,,,,,,,,,,,,,,,,,,,,,,,,,,,,,,,,,,,,,,,,,,,,,,,,,,,,,,,,,,,,,,,,,,,,,,,,,,,,,,,,,,,,,,,,,,,,,,,,,,,,,,,,,,,,,,,,,,,,,,,,,,,,,,,,,,,,,,,,,,,,,,,,,,,,,,,,,,,,,,,,,,,,,,,,,,,,,,,,,,,,,,,,,,,,,,,,,,,,,,,,,,,,,,,,,,,,,,,,,,,,,,,,,,,,,,,,,,,,,,,,,,,,,,,,,,,,,,,,,,,,,,,,,,,,,,,,,,,,,,,,,,,,,,,,,,,,,,,,,,,,,,,,,,,,,,,,,,,,,,,,,,,,,,,,,,,,,,,,,,,,,,,,,,,,,,,,,,,,,,,,,,,,,,,,,,,,,,,,,,,,,,,,,,,,,,,,,,,,,,,,,,,,,,,,,,,,,,,,,,,,,,,,,,,,,,,,,,,,,,,,,,,,,,,,,,,,,,,,,,,,,,,,,,,,,,,,,,,,,,,,,,,,,,,,,,,,,,,,,,,,,,,,,,,,,,,,,,,,,,,,,,,,,,,,,,,,,,,,,,,,,,,,,,,,,,,,,,,,,,,,,,,,,,,,,,,,,,,,,,,,,,,,,,,,,,,,,,,,,,,,,,,,,,,,,,,,,,,,,,,,,,,,,,,,,,,,,,,,,,,,,,,,,,,,,,,,,,,,,,,,,,,,,,,,,,,,,,,,,,,,,,,,,,,,,,,,,,,,,,,,,,,,,,,,,,,,,,,,,,,,,,,,,,,,,,,,,,,,,,,,,,,,,1h[673:170],,
{8},,2,3h[4:1],,5h[4:1],,7h[8:7],{1},
{8}6,,6,5h[8:3],,,,,
{8}6,,6,7h[8:3],,,,,
{8}1,,1,2h[8:3],,,3-8[8:1],,
{1}1b,
{4}2,2,8,8,
{4}1,1,7,7,
{4}3,3,5,5^2[4:1],
{4},1^6[4:1],,,
{8}2,3,2,,8,7,8,,
{8}1,2,1,,7,6,7,,
{8}3,4,3,,5,4,5,,
{8}6,5,4,3,2,1,,2-5[4:1]/8-4[4:1],,,,,
E
&inote_5=(152.0){1},
{4}2h[4:1],3h[2:1],1^6[16:1],,
{4}7h[4:1],6h[2:1],8^3[16:1],,
{4}4h[4:1],5h[2:1],6^1[16:1],,
{8}2,1,8,7,8,1,2,3/4,
{4}6h[4:1],5h[2:1],3^8[16:1],,
{4}8h[4:1],7h[2:1],2^5[16:1],,
{4}5h[4:1],4h[2:1],2^7[16:1],,
{8}3,4,5,6,5,4,3,2b/3b,
{16}2h[4:1],,3,,7h[8:1],,6,,2/4,,,5/2,,,6/2,,
{8},1,1,,2h[4:1]/8^3[4:1],8,,,
{8}2-5[16:1],8-4[16:1],,,8/5,,1/6,2/5,
{8},5,5h[2:1],,6^1[4:1],6,,,
{16}2,,2,,3,,3,,3,,,8/4,,,2/6,,
{8},5/1,1h[2:1],,8,8,7,,
{8}1h[16:3]/6h[4:7],,8,8h[4:1],,,7,7h[8:7],{1},
{16}3/1^6[4:1],,3,,2,,1,,8,,,7,,,6-1[8:3],,
{8},5,4h[2:1],,,,,,
{16}3,,2,,5/1,,8/4,,3/7,,,3^8[16:9],,,3,,
{8},4,5h[2:1],,,,,,
{16}5,,6,,5/6,,5/4,,4/3,,,2^7[16:9],,,3,,
{8},2,2h[2:1],,,,,,
{8}8h[16:3]/3h[4:7],,1,1h[4:1],,,2,2h[8:7],{1},
{1}7^4[8:5]/8^3[8:5],
{8}2h[8:3],,1,3h[2:1],,,4,2,
{8},6,7,8,1,8,7,6,
{8}3h[8:3],,4,2h[2:1],,,3,1,
{8},3,2,1,8,1,2,1/2,
{8}2-6[8:1],1,8,7,1^6[8:1],5,4,3,
{8}8-5[8:1],3,2,1,7,5,3,1h[2:3],
{8},2,3,4,5,6,7,8,
{8}2,,7,8,,8b/1b,,,
{4}4/1^6[8:1],5,4/3^8[8:1],5,
{4}1^6[8:1],2-6[8:1],3-6[8:1],,
{4}5/7^2[8:1],4,5/3^8[8:1],4,
{4}2^5[8:1],1-5[8:1],8-5[8:1],,
{4}1-5[8:1],7-3[8:1],1-6[8:1],,
{4}4^1[8:1]/7^4[8:1],,8/3,1-5[16:1],
{4}1^6[16:1],1^4[16:1],,,
{4}5/8^3[8:1],4,5/6^1[8:1],4,
{4}8^3[8:1],7-3[8:1],6-3[8:1],,
{4}8/7^4[8:1],1,8/2^5[8:1],1,
{4}8-4[8:1],8^3[8:1],8^5[8:1],,
{8},,2,1,8^3[4:1],7,6,5,
{8}4,,8,1,2^7[8:1],3,4,5,
{8}6,,8,1,7^2[8:1],2,6,3,
{1}5h[4:3],
{8}7h[8:3],,,1h[8:3],,,8,,
{8}2-6[4:1],,7,8,1,2,3,4,
{4}1^6[8:1],2-6[8:1],3-6[8:1],,
{8}8-4[4:1],,2,1,8,7,6,5,
{4}2^5[8:1],1-5[8:1],8-5[8:1],,
{8},,6,7,8,2,3,4,
{8}8/4,,,3,2,1,7,6,
{16}5/1,,,8/4,,,3^6[4:1]/7^2[4:1],,,,,,,,,,
{8}8^3[4:1],,6,7,8,1,2,3,
{2}4h[4:3]/5-8[8:1],8-5[8:1],
{8}2-6[4:1],,7,8,1,2,3,4,
{8}5h[4:3],,8,,1,,1,7/6,
{8},3/2,,1b/7b,,,8/1,,
{8},,2,1,2,1,2,3,
{8}3/4,,8,7,8,7,6/1,5/2,
{1}3^8[4:3]/4^7[4:3],,
{1}3h[4:3]/8-5[2:1],
{1}4h[4:3]/6-3[2:1],
{2}1/5h[4:7],2,
{2}3,4,
{8}8,,8^3[4:1],8h[8:3],,,,,
{8}2,,2^7[4:1],2h[8:3],,,,,
{8}6,,6^3[4:1],6h[8:3],,,,,
{8}2b,1b,8b,7b,,,,,
{4}2h[4:1],3h[2:1],1^6[16:1],,
{4}7h[4:1],6h[2:1],8^3[16:1],,
{4}4h[4:1],5h[2:1],6^1[16:1],,
{8}2,1,8,7,8,1,2,3/4,
{4}6h[4:1],5h[2:1],3^8[16:1],,
{4}8h[4:1],7h[2:1],2^5[16:1],,
{4}5h[4:1],4h[2:1],2^7[16:1],,
{8}3,4,5,6,5,4,,1h[8:15]/8h[8:15],,,,,,,{1},,
E
&inote_6=(152.0){1},
{4}3h[4:3],4q1[4:1],,,
{4}6h[4:3],5p8[4:1],,,
{4}3h[4:3],4q1[4:1],,,
{8}2,1,3,8,4,7,5,6,
{4}4/5h[4:3],7p2[4:1],,,
{4}5/4h[4:3],2q7[4:1],,,
{4}4/5h[4:3],7p2[4:1],,,
{8}1/8,7,5/7,2,2/4-8[8:1],,,,
{8}4/6,6,2/6,6,6/8^3[8:1],6,6,6h[4:1],
{8},4,4/5pp4[4:1],,1,2,3,,
{8}3/5,3,3/7,3,3/1^6[8:1],3,3,3h[2:1],
{8},6,5,4,3,4,5,6,
{8}4/6,6,2/6,6,6/8^3[8:1],6,6,6h[4:1],
{8},4,5/4qq5[4:1],,8,7,6,,
{16}4/7,,6,5,6,,2/5,,3,4,3,,4/5,,2/7h[2:1],,
{8},8,1,2^7[8:1],,3,4,5,
{8}6,6,5/7,4,3,3,2/4,5h[8:3],
{8},7,7<3[4:1],,1,8,7,,
{8}3,3,2/4,5,6,6,5/7,4h[4:1],
{8},5,4,3,2,3,4,5,
{8}6,6,5/7,4,3,3,2/4,1h[8:3],
{8},3,3<7[4:1],,8,1,2,,
{16}2/5,,3,4,3,,4/5,,6,5,6,,4/7,,8/5^3[8:1],,
{8},5^7[8:1],,5p2[8:3],,5,,,
{2}8bqq5[2:1],4-1[8:1],
{8}6/2^7[8:1],,5-8[8:1],5,,,4-1[8:1],4,
{8},7,6,5,4/3pp4[4:1],,8,,
{8}7h[8:3],3,2,1^3[8:1],,5/1^7[8:1],,1,
{8},5,4,3,2h[2:1],1,8,7,
{8}6,5,4,3h[4:1],,4,2/5,,
{8}7,6,5,4h[4:1],,5,3/6,,
{8}8,4,7,3,6,2,5,1,
{16}2/8,,3,4,3,,1b/7b,,,,4/5,,3/6,,2/7,,
{8}8/1>5[4:1],,5qq1[2:1],6,7,8,7,6,
{16}5h[4:1],,,,2,,4,3,,5,4,,2/6,,3/7,,
{8}5/8<4[4:1],,4pp8[2:1],3,2,1,2,3,
{16}4h[4:1],,,,7,,5,6,,4,5,,3/7,,2/6,,
{8}1/5h[4:3],,8,1,2,3,4pp4[4:1]*qq4[4:1],4,
{8},,,1,8,7,6,5,
{16}2/4,,,5/7,,,1bpp4[8:3]/4bpp7[8:3],,,,,,,,,,
{16},,,,1/2,,3/8,,4/7,,5/6,,4,5,4,,
{8}6b/1b>6[4:1],6,7,8-4[8:1],,3>6[4:1],,5h[8:5],
{8},,4,3,2,1/3,4/8,5/7,
{8}6-2[8:1],7,8,1-5[8:1],,8<1[4:1],,1,
{16},,,,5,,4,,3,,4/5,,3/6,,4,5,
{16}2-6[8:1],,,,1,,8,,7,,4/5,,2/7,,5,4,
{16}7-3[8:1],,,,8,,1,,2,,4/5,,2/7,,4,5,
{8}1-5[8:1],5-1[8:1],4,8,,3/6,5,4,
{8}2b^5[8:1],1,8,7,,3/6,1/8,,
{8}7b/2bV48[4:1],,8pp4[2:1],7,6,5,4,5,
{16}6h[4:1],,,,3,,3,5,,5,8,,1/6,,4/5,,
{8}3/7V51[4:1],,1qq5[2:1],2,3,4,5,4,
{16}3h[4:1],,,,6,,6,5,,5,1,,3/8,,4/5,,
{8}6/1h[2:1],,2,3,4,5,1/6,2/7,
{8}8/3h[4:1],,4,3,2,1/3,4/8,5/7,
{16}4/6,,,2/4,,,4bqq1[4:1]/8bqq5[4:1],,,,,,,,,,
{16}1/6,,2/5,,3/4,,3/8,,4/7,,5/6,,4,5,4,,
{8}3b/8b<3[4:1],3,2,1-5[8:1],,6<3[4:1],,4h[8:3],
{8},,5,6,7h[2:1],8,1,2,
{8}3-7[8:1],2,1,8-4[8:1],,1,2,8/3-8[8:1],
{8},6<3[4:1],,1b,,,4/5,,
{16}7-3[8:1],,,,8,,1,,2,,4/5,,2/7,,3,4,
{16}2-6[8:1],,,,1,,8,,7,,4/5,,2/7,,6,5,
{8}8qq5[4:3],1,2,3qq5[8:3],,,,,
{8},,5/7,4/5,3/6,,2b/7b,,
{2}6h[4:1]/4v5[8:1],7h[4:1]/4v6[8:1],
{2}8h[4:1]/4v7[8:1],1h[4:1]/4-8[8:1],
{2}2h[4:1]/4v1[8:1],3h[4:1]/4v2[8:1],
{2}5h[4:1]/4v3[8:1],6h[4:1]/4-8[8:1],
{8}7,6,5,4/3h[8:3],,2,2,,
{8}6,5,4,2h[8:3]/3s7[4:1],,,,,
{8}5,4,3,2/1h[4:1],,3,4,5,
{8}3/6,5,4,2b/8b,,4/5,2/7,,
{8}5-8[8:1],,3p1[4:1],,8,7,6,,
{8}5-8[8:1],,3p1[4:1],,7,6,5,,
{8}5-8[8:1],,3p1[4:1],,6,5,4,,
{8}2h[2:1],3,4,5,6-1[8:1],6h[8:3],,,
{8}4-1[8:1],,6q8[4:1],,1,2,3,,
{8}4-1[8:1],,6q8[4:1],,2,3,4,,
{8}4-1[8:1],,6q8[4:1],,3,4,5,,
{8}7h[2:1],6,5,4,3,2/8,,5h[8:17]/1b>8[8:15],{1},,,
E
