&title=千本桜
&artist=黒うさP
&wholebpm=154
&demo_seek=44.5
&demo_len=12.5
&lv_1=2
&lv_2=6
&lv_3=8
&lv_4=10+
&lv_5=13
&des_4=ニャイン
&des_5=はっぴー
&inote_1=(154.0){1},,,,,
{1}2,
{1}2,
{1}3,
{1}3,
{1}2,
{1}2,
{2}1,1,
{1}1b,
{1}8,
{1}7,
{1}8,
{1}1,
{1}1,
{1}2,
{1}1,
{1}8,
{1}7-2[2:1],,
{1}2-7[2:1],,
{2}6,6,
{2}5,5,
{1}4,,
{2}2,2,
{2}1,1,
{2}8,8,
{1}7h[2:1],
{2}7,7,
{2}8,8,
{2}1,1,
{2}2,2,
{2}1,8,
{2}7,6,
{2}7,8,
{1}1h[2:1],
{2}8,7,
{2}6,5,
{2}6,7,
{2}8,8b,
{1}1,
{1}2,
{1}3,
{1}4,
{1}3,
{1}2,
{1}1,
{2}8,8b,
{4}7,7,,,
{4}6,6,,,
{4}7,7,,,
{4}8,8,,,
{4}1,1,,,
{4}2,2,,,
{2}2,1,
{2}8,8b,
{1}1,
{1}1,
{1}2,
{1}2,
{1}1,
{1}1,
{1}8,
{1}8/1,
{1}8/1,
E
&inote_2=(154.0){1},,,,
{4}2,7,1,4,
{2}8,8,
{2}7,7,
{2}8,8,
{2}7,7,
{2}6,3,
{2}6,3,
{2}2,7,
{4}3,3,4,,
{2}7,7,
{2}8,8,
{2}1,1,
{4}2,2,2,,
{2}3,3,
{2}4,4,
{2}5,5,
{4}8,7-3[4:1],,,{1},
{4}5,5,3,,
{2}7/8,1/2,
{4}1,1,1,,
{4}8,8,1,,
{2}7/2,6/3,
{2}2/1,8/7,
{1}6-3[4:1],
{2}3,3/2,
{4}8,8,8,,
{1}7h[2:1],
{4}1,8,8/1,,
{2}7/2,8/1,
{2}8/7,1/2,
{4}1,1,1,,
{2},1b,
{2}6/1,7/2,
{4}8,1,2,,
{1}7h[2:1],
{4}8,1,1,,
{2}8/1,7/2,
{2}1,8,
{4}5,4,6,3,
{2}2,1b,
{1}1-4[4:3],,
{1}4-1[4:3],,
{1}2h[2:1],
{1}6h[2:1],
{1}6b,
{4}8,8,1,,
{2}3,2/3,
{4}8,8,8,,
{1}1h[2:1],
{1}7h[2:1],
{2}7/2,8/1,
{2}8/7,1/2,
{4}1,1,1,,
{2}7,8b,
{4},2,,7,
{4},7,,2,
{4},2,,7,
{4},7,,6,
{4},6,,3,
{4},6,,3,
{4},2,,7,
{4}3,3,4,,
{4}2,1-4[4:1],,,
E
&inote_3=(154.0){1},1h[4:3],
{1}8h[4:3],
{1}7h[4:3],
{4}6,7,8,1b,
{4}1h[4:1],2,8h[4:1],7,
{4}3h[4:1],4,6h[4:1],5,
{4}2h[4:1],3,7h[4:1],6,
{4}4,5,4,8/1,
{4}1h[4:1],2,4h[139:35],3,
{4}8h[4:1],7,6h[4:1],5,
{4}2h[4:1],3,7h[4:1],6,
{4}3,6,1b/8b,,
{4}1,2,3h[4:1],,
{4}1,1,8,8,
{4}7,7,7h[4:1],,
{4}8,8,1,1,
{4}2,3,3/4,,
{4}8,7,6/7,,
{4}1/2,2/3,3/4,,
{4}1,7,5,3b,
{4}2,7,4/5,1,
{4}6,3,4/5,,
{4}2,7,4/5,1/2,
{4}8,7,1/8,,
{4}1,2,3-8[8:1],,
{4}7,5,3/4,,
{8}2,2,,1,1,,2,,
{1}3h[8:3],
{4}2,2,7h[4:1],6,
{4}7,7,2h[4:1],,
{4}1,2,3,3/4,
{4}1,8,7/6,,
{4}8,1,2,3,
{4}2,1,7/8,,
{4}8/1,8/1,2/1,1/2,
{4}1/8,8/7,6/7,,
{4}1,6,3h[4:1],,
{4}2,7,4/5,,
{4}8/6,8/6,3/1,1/3,
{4}1/8,7/2,5/4,,
{4}1,1,1h[4:1],,
{4}3,3,5/6,,
{4}6,6,7,8,
{4}1/8,2/1,2b/3b,,
{4},1,,8,
{4},7,,6,
{4},5,,4,
{4},3,,2,
{4}1,3,5,7,
{4}7,5,3,1,
{4}8,8,7,7,
{4}1/8,1/2,8b/1b,,
{4}2,4,6,8,
{4}7,5,2/3,,
{4}2,3,4,5,
{4}4,2,1b/8b,,
{4}8,7,6,5,
{4}6,8,1/2,,
{4}8,7,6,5,
{4}3/4,5/6,7/8,,
{4}1h[4:1],2,8h[4:1],7,
{4}3h[4:1],4,6h[4:1],5,
{4}2h[4:1],3,7h[4:1],6,
{4}4,5,4,8/1,
{4}1h[4:1],2,4h[139:35],3,
{4}8h[4:1],7,6h[4:1],5,
{4}2h[4:1],3,7h[4:1],6,
{4}3,6,1/8,,
{4}1,1,4b,
E
&inote_4=(154.0){1},,
{4},,7/8,2/1,{1},
{4}2/7h[4:1],6,5/1-4[8:1],,
{4}7h[4:1],6,1h[4:1],2,
{4}8h[4:1],7,2h[4:1],3,
{4}4/7h[4:1],6,6/2h[4:1],3,
{4}4/7h[4:1],8h[4:1],1h[4:1],2,
{4}3/8h[4:1],7,6/2h[4:1],4,
{4}3/7h[4:1],5,6/1h[4:1],2,
{4}3h[4:1],5h[4:1],7h[4:1],8b,
{16}1/2,,,4/5,,,5/6,,4/5,,,,,,,,
{4}1/3h[4:1],2^7[4:1],,,
{4}6/3h[4:1],4,3/6h[4:1],8^3[8:1],
{4},1^6[8:1],,8,
{4}2h[4:1],6h[4:1],4h[4:1],5,
{4}3/7h[4:1],6,6/2h[4:1],1,
{4}8/7h[4:1],6,6/8h[4:1],7,
{4}5/1h[4:1],3,3/7h[4:1],5,
{4}8b,2b,6b,3b,
{4}5,4,3,2,
{4}3/4h[4:1],5,6/2,7^4[4:1],
{4},1^4[4:1],,1^6[4:1],
{4},5-1[4:1],,,
{4}4/3,5,6,8/7,
{4}1/2,8/1,3/6,,
{8}3/2h[8:3],3,,8,8h[1:1],,1^6[2:1],,
{8},,,,,,2,3,
{16}4,,,7,,,5,,3h[4:1],,,,,,4,,
{8}5,6,7,8,1,,7,6,
{16}5,,,4,,,6,,8h[4:1],,,,,,1,,
{8}2,1,8,7,6,,5,2,
{16}8,,,1,,,2,,3h[4:1],,,,,,1,,
{8}8,7,8,1,2,,8,7,
{4}6h[4:3],1,2,3,
{4}4/8,2/6,7/3,1^4[2:1],
{16}5,,,6,,,7,,7h[4:1],,,,,,8,,
{8}7,6,5,4,3,,4,5,
{16}6,,,6,,,7,,7h[4:1],,,,,,7,,
{8}8,1,8,7,6,,4-8[2:1],,
{16}1,,,2,,,3,,3h[4:1],,,,,,2,,
{8}1,2,3,4,5,,2,,
{4}5/6h[4:3],3,7,1,
{4}8h[2:1],5-1[4:1],,8^5[4:3],{1},,
{1}7h[4:3],
{4}6h[4:3],,,5^8[4:3],{1},
{4}2h[4:3],,,1-5[4:3],{1},
{8}7b/3b,,8b/4b,,6b/2b,,2,3,
{16}4,,,7,,,5,,3h[4:1],,,,,,4,,
{8}5,6,7,8,1,,7,6,
{16}5,,,4,,,6,,8h[4:1],,,,,,1,,
{8}2,1,8,7,6,,5,2,
{16}8,,,1,,,2,,3h[4:1],,,,,,1,,
{8}8,7,8,1,2,,8,7,
{4}6h[4:3],1,2,3,
{4}8/4,2^5[4:1]/6^1[4:1],,,
{4}7h[4:1],6,1h[4:1],2,
{4}8h[4:1],7,2h[4:1],3,
{4}4/7h[4:1],6,6/2h[4:1],3,
{4}4/7h[4:1],8h[4:1],1h[4:1],2,
{4}3/8h[4:1],7,6/2h[4:1],4,
{4}3/7h[4:1],5,6/1h[4:1],2,
{4}3h[4:1],5h[4:1],7h[4:1],8b,
{16}1/2,,,2/3,,,6/7,,5/6,,,,,,,,
{16}1b/8b,,,1b/2b,,,8b/7b,,4b/5b,
E
&inote_5=(154.0){1},
{16}7/6,,,7/6,,,5/7,,3/2,,,2/3,,,2/4,,
{16}6/7,,,6/7,,,6/8,,3/2,,,,3/1,,,,
{16}7/8,,,7/8,,,1/6,,1/2,,,1/2,,,3/8,,
{4}6/5,4/3,7/8,1/2,
{16}4/7,,6/5,,5,6,5,6,5,,3/4,,3,4,3,4,
{16}3,,5/4,,4,5,4,5,4,,3,,4,,5,,
{16}6,,7/8,,8,7,8,7,8,,1/2,,2,1,2,1,
{16}2,,8,,1,,8/1,,1,8,1,8,1,,1/8,,
{16}5/6,,4/5,,5,4,5,6,5,,4/5,,4,5,4,3,
{16}4,,3/4,,3,4,3,2,3,,4,,5,,6,,
{16}5,4,3,2,1,8,7,6,5,,4/3,,2,,1/3,,
{16}1/7,,,6/8,,,7/5,,6-3[8:1],,,,,,,,
{8}7h[4:1],,6h[4:1],,7,8,1,2,
{16}3h[4:1],,,,2h[4:1],,,3,3,,2,,1,,8,,
{8}7h[4:1],,6h[4:1],,7,6,5,4,
{4}3h[4:1],1h[4:1],7h[4:1],5,
{16}2h[4:1],,,3,3h[4:1],,,2,2,,3,,4,,5,,
{16}7h[4:1],,,6,6,,7,,8,,1,,2,,3,,
{16}2h[4:1],,,3,3,,2,,1,,,,8,,,,
{4}1-5[8:1],1^4[8:1],1^6[8:1],,
{8}2h[4:1]/7-4[8:1],,,2,2/4-8[8:1],,2b,,
{8}2h[4:1]/8-3[8:1],,,2,2/3-6[8:1],,2b,,
{8}2h[4:1]/6-1[8:1],,,2,2/1-6[8:1],,2b,,
{8}2h[4:1]/6-3[8:1],,,2,2/3-7[8:1],,2b,,
{8}7h[4:1]/2-5[8:1],,,7,7/5-8[8:1],,7b,,
{8}7h[4:1]/8-3[8:1],,,7,7/3-6[8:1],,7b,,
{8}7h[4:1]/6-1[8:1],,,7,7/1-4[8:1],,7b,,
{8}8/6,,1,2b/3b,,,3,6,
{16}1,,,4,,,1/6,,3/8,,,,,,4/8,,
{8}4/8,3/7,6/2,5/1,4/8,,1/3,2,
{16}7/8,,,7/6,,,6/5,,4/3,,,,,,2-7[8:1],,
{8}2h[2:1],,,,8-5[8:1],,4,3,
{16}2,,,6/1,,,8/3,,4/7,,,,,,5/1,,
{8}5/1,2/6,7/3,4/8,1/5,,8,3,
{4}1/2,6/5,8/7,3/4,
{8}2-5[4:1],1,8,7,6,,7,8,
{16}5/6,,,4/5,,,3/4,,1/6,,,,,,1/5,,
{8}8/4,7/3,6/2,5/1,4/8,,3,4,
{16}5/6,,,6/7,,,7/8,,
{934}2/5,,,,,,,,,,,,,,,,,,,,,,,,,,,,,,,,,,,,,,,,,,,,,,,,,,,,,,,,,,,,,,,,,,,,,,,,,,,,,,,,,,,,,,,,,,,,,,,,,,,,,,,,,,,,,,,,,,,,,,,,,,,,,,,,,,,,,,,,,,,,,,,,,,,,,,,,,,,,,,,,,,,,,,,,,,,,,,,,,,,,,,,,,,,,,,,,,,,,,,,,,,,,,,,,,,,,,,,,,,,,,,,,,,,,,,,,,,,,,,,,,,,,,,,,,,,,,,,,,,,,,,,,,,,,,,,,,,,,,,,,,,,,,,,,,,,,,,,,,,,,,,,,,,,,,,,,,,,,,,,,,,,,,,,,,,,,,,,,,,,,,,,,,,,,,,,
{781}2-6[5000:1871]/8-4[5000:1871],,,,,,,,,,,,,,,,,,,,,,,,,,,,,,,,,,,,,,,,,,,,,,,,,,,,,,,,,,,,,,,,,,,,,,,,,,,,,,,,,,,,,,,,,,,,,,,,,
{8}1,2/8,,,,,7,8,
{16}1/2,,,3/2,,,4/3,,6/1,,,,,,8/4,,
{8}1/5,2/6,3/7,8/4,5/1,,5/4,6/5,
{4}7h[4:1],8h[4:1],1h[4:1],2h[4:1],
{8}1,2/8,2-5[8:1]/8-5[8:1],8/2,,,7^4[2:1]/8^3[2:1],,
{4},,,1-5[2:1],
{4},,,1^6[2:1]/6^3[2:1],
{4},,,7-2[8:1],
{8},,2^7[8:1]/7^4[8:1],,,,7,7,
{16}6/8,,,8/1,,,1/3,,2,,,,,,3h[8:5],,
{8}2,1,8,7,6,,5/6,3/4,
{4}3/1,2/4,8/6,7/5,
{8}4,5,4,5,3/6,,1/7,3/6,
{16}1/4,,,2/5,,,6/3,,1/8,,,,,,1/7,,
{8}7,5/7,5,3/5,3,,8^3[4:1],8,
{16}7,,,7,,,7,,5/6,,,,,,4,,
{8}4^7[4:1],4,1,2,3,,7,6,
{16}6h[2:1],,,5,,,4,,3,,,,,,2/8,,
{8}2,2/4,4,6/4,6,,1/2,3/8,
{4}7/5,6/8,4/2,3/1,
{8}1/6,5/2,3-8[8:3]/4-7[8:3],3/4,,,,,
{16}4/3,,4/2,,3,2,3,4,3,,7/5,,6,7,6,5,
{16}6,,4/2,,3,2,3,4,3-6[8:1],,,,,,,,
{16}1/2,,3/1,,2,1,2,3,2,,6/8,,7,8,7,6,
{16}7-2[8:1],,,,,,,,1,2,1,8,7,,8/7,,
{16}1/7,,8/2,,1,2,1-5[8:1],8,1,,,,8,1,8-4[8:1],7,
{16}8,,,,1,2,1,8,7,,6/5,,4/5,,4/3,,
{16}5,6,7,8,1,2,3,4,5,,3/4,,2/3,,1/2,,
{16}2/5,,,4/7,,,6/3,,4^1[8:1]/5^8[8:1],,,,,,,,
{16}1/6,,,3/8,,,4/5,,1-4[8:1]/8-5[8:1],,,,,,,
E
