&title=ぴぴぱぷぅ!
&artist=Hiro/小山あかり
&wholebpm=147
&demo_seek=79
&demo_len=13.9
&lv_1=1
&lv_2=3
&lv_3=8
&lv_4=11
&lv_5=13
&des_4=ニャイン
&des_5=mai-Star
&inote_1=(147.0){1},2,,
{1}2,,
{1}1,,
{1}1h[1:1],,
{1}8,,
{1}7,,
{1}8,,
{1}1-4[4:3],,
{1}4,,
{1}5,,
{1}6,,
{1}7,
{1}7b,
{1}8,,
{1}1,,
{1}2,,
{1}3,
{1}3b,
{2},2,{1},
{2},1,{1},
{1}8,,
{1}7,
{1}7,
{1}8,
{1}8,
{1}1,
{1}1,
{1}2h[2:1],,
{1}2-7[4:3],,
{1}8,,
{1}7,,
{1}6,,
{1}5,,
{1}4,,
{1}3,,
{1}2,,
{1}1h[1:1],,
{1}1,
{1}1,
{1}2,
{1}2,
{1}3,
{1}3,
{1}4,
{1}4,
{1}5,
{1}5,
{1}6,
{1}6,
{1}7,
{1}7,
{1}8,
{1}8b,
E
&inote_2=(147.0){1},2,,
{1}3,,
{1}2,,
{1}1-4[2:1],,
{4},8,,8,
{4},7,,7,
{4},8,,8,
{4},1,,1,
{4},2,,2,
{4},3,,3,
{4},2,,2,
{1}2b,
{2}8,8,
{2}7,7,
{2}8,1,
{2}2,3,
{2}1,1,
{2}8,8,
{1}1h[4:3],
{1}2h[4:3],
{4}1,1,,,
{4}8,8,,,
{4}1,1,,,
{4}2,2,,,
{2}1,1,
{2}8,8,
{1}7h[4:3],
{1}6h[4:3],
{1}7-2[2:1],,
{1}3,
{1}4,
{1}3-6[2:1],,
{2}7,7,
{2}8,8,
{1}1-4[2:1],,
{1}5,
{1}6,
{1}5h[1:1],,
{2}1,1,
{1}1b,
{4}1,1,,,
{4}2,2,,,
{4}1,1,,,
{1}8b,
{4}7,7,,,
{4}6,6,,,
{2}7,7,
{2}8,8/1,
{4}2,2,,,
{4}3,3,,,
{4}8,8,,,
{4}7,7,,,
{1}8h[4:3],
{1}1h[4:3],
{1}2-7[2:1],,
{4}8,8,,,
{4}7,7,,,
{4}8,8,,,
{1}1b,
{4}2,2,,,
{4}3,3,,,
{2}2,1,
{4}8,8,8,8b,
{4}7,7,,,
{4}6,6,,,
{4}7,7,,,
{4}1,1,,,
{1}2h[4:3],
{1}3h[4:3],
{4}4-1[2:1],,,,
E
&inote_3=(147.0){1},
{4}2,3,,2,
{4},1,,8,
{4}6,7,,6,
{4},5,,4,
{4}1/8,1/8,,1/2,
{4},7/8,,6/3,
{1}8h[4:7]/1h[4:7],,
{4}1,2,1h[4:1],,
{4}1,8,7h[4:1],,
{4}8,7,8h[4:1],,
{4}8,1,2h[4:1],,
{4}1,8/7,6/5,,
{4}3,4/5,7/6,,
{4}7h[4:1],8,2h[4:1],1^6[4:3],{1},
{4}3h[4:1],5,6h[4:1],4,
{4}2,1,8h[4:1],,
{4}7h[4:1],5,2h[4:1],4,
{4}7,8,1h[4:1],,
{1}8^3[2:1],
{1}1^6[2:1],
{4}6h[4:3],3,,3,
{16}2,,,7,,,1b/8b,,,,,,,,,,
{4}7h[4:1],5,2h[4:1],4,
{4}7,8,1h[4:1],,
{4}3h[4:1],5,6h[4:1],4,
{4}2,1,8h[4:1],,
{4}3h[4:3],4,,4,
{4}6h[4:3],5,,5,
{251}2h[8:3],,,,,,,,,,,,,,,,,,,,,,,,,,,,,,,,,,,,,,,,,,,,,,,,,,,,,,,,,,,,,,,,,,,,,,,,,,,,,,,,,,,,,,,,,,,,,,
{751}6h[2000:751],,,,,,,,,,,,,,,,,,,,,,,,,,,,,,,,,,,,,,,,,,,,,,,,,,,,,,,,,,,,,,,,,,,,,,,,,,,,,,,,,,,,,,,,,,,,,,,,,,,,,,,,,,,,,,,,,,,,,,,,,,,,,,,,,,,,,,,,,,,,,,,,,,,,,,,,,,,,,,,,,,,,,,,,,,,,,,,,,,,,,,,,,,,,,,,,,,,,,,,,,,,,,,,,,,,,,,,,,,,,,,,,,,,,,,,,,,,,,,,,,,,,,,,,,,,,,,,,,,,,,,,,,,,,,,,,,,,,,,,,,,
{16}5,,,,
{16}1/8,,,1/8,,,2b/7b,,,,,,,,,,
{4}3,4,3-6[4:1],,
{4}5,6,5-8[4:1],,
{4}3,5,4-1[4:1],,
{4}2,1,8^3[4:1],,
{4}1h[4:1],2,8h[4:1],7,
{4}2h[4:1],3,7h[4:1],6,
{2}1-4[4:1],8-5[4:1],
{2}1-5[4:1],8-4[4:1],
{4}3,4,3,3/4,
{4}6,5,6,6/5,
{4}2,1,8,8/7,
{4}7,8,1,2/1,
{4}3h[4:3],4,,4,
{4}6h[4:3],5,,5,
{1}1^6[4:3],
{4},,8,8b,
{8}5,,5/6,,2,3,4,,
{8}3,,4/3,,7,8,1,,
{8}3,,6/5,,3,4,3,,
{8}6,,3/4,,6,5,6b,,
{4}3h[4:3],2,1,8,
{4}7h[4:3],6,5,4,
{2}3-6[4:1],1-4[4:1],
{2}7-2[4:1],8-5[4:1],
{8}2,,1/2,,8,7,8,,
{8}6,,5/6,,3,4,3,,
{4}7h[4:1],6,2h[4:1],3,
{2}1-4[4:1],8-5[4:1],
{4}6,7,8,1,
{4}2,3,4,5,
{4}7h[4:1],8,2h[4:1],1^6[4:3],{1},
{8}2,1,2,1,2,1,1/2,,
{8}7,8,7,8,7,8,8/7,,
{8}3,4,3,4,3,4,3/4,,
{8}5,6,5,6,5,6,6/5,,
{4}7h[4:3],8,1,2,
{4}3h[4:3],2,1,8,
{2}8-5[4:1],3-6[4:1],
{4}4,3/6,2/7,8b/1b,
{8}1,,2,,7,8,7/8,,
{8}5,,6,,3,4,3/4,,
{4}2h[4:1],3,7h[4:1],6,
{2}2-6[4:1],8-4[4:1],
{4}1,2/1,,8/7,
{4},4/3,,6/5,
{4}6h[4:3],8,8,
{1}8^3[4:3],,
E
&inote_4=(147.0){1},
{4},2,,2,
{4},1,,1,
{4},2,,2,
{4},3,,3,
{4},2,,2,
{4},1,,1^4[2:1]/8^5[2:1],{1},,
{8}1,,1,2,,1,,7/8,
{8},6/7,,6h[8:3]/5^2[4:1],,,,,
{8}4,,4,3,,4,,5/6,
{8},7/8,,1h[8:3]/2^5[4:1],,,,,
{8}8,,8,7,,1,,2,
{8},2,3,2h[4:1],,1,,7h[4:1],
{8},6,5,6h[2:1],,7,,1h[8:7],{1},
{8}1,,2,,1,1,,8/7,
{8},7/6,,8h[8:3],,7,7,,
{8}2,,3,,4,4,,5/6,
{8},4/3,,6h[8:3],,5,5,,
{8}8/1,,7/8,,1,1,,2h[4:1],
{8},4h[4:1],,6h[8:3],,,7b,,
{1}1-4[4:1]/8-5[4:1],
{16}3/4,,,5/6,,,1/8,,,,,,,,,,
{8}8/7,6,5h[4:1],,1,2,3h[4:1],,
{8}8,7,6h[4:1],,2,3,4,,
{8}7/8,6,5h[4:1],,1,2,3/4h[4:1],,
{8}8,7,6/5h[4:1],,2,3,4,,
{8}2-5[8:1],,,,7-4[8:1],,,6-1[8:1],
{8},3-8[8:1],,7^2[8:1],,,,,
{8}1h[8:3],,,2h[8:3],,,,,
{16}8/1,,,2/6,,,7b/3b,,,,,,,,,,
{16}6h[16:3],,,5,6,,,,3h[16:3],,,4,3,,,,
{16}6h[16:3],,,4,6,,,,3h[16:3],,,5,3,,,,
{16}7h[16:3],,,8,6,,,,2h[16:3],,,1,3,,,,
{16}7h[16:3],,,1,8,,,,2h[16:3],,,8,1,,,,
{4}7,7-3[8:1],8,8-4[8:1],
{4}1,1-5[8:1],2,2-6[8:1],
{4}1,1-5[8:1],8,8-4[8:1],
{4}7,7-3[8:1],8b,1b,
{16}5h[16:3],,,4,6,,6,,4h[16:3],,,5,3,,3,,
{16}8h[16:3],,,1,7,,7,,1h[16:3],,,8,2,,2,,
{16}6h[16:3],,,5,7,,7,,3h[16:3],,,4,2,,2,,
{16}7h[16:3],,,1,6,,6,,2h[16:3],,,1,3,,3,,
{8}2,,1/8,,2,4,3/4,,
{8}5,,6/7,,8,7,6,7^2[4:1],
{8},,,,,,8/1,7b/8b,{1},
{8}2,3,2,,2,1,2,,
{8}2,3,4,,2,1,1b,,
{16}7/8^3[8:1],,,,,,,,1,,,8,,,7h[8:7],,
{8},,,,,8,8b,,
{8}7,6,7,,7,8,7,,
{8}7,6,5,,7,8,8b,,
{16}2/1,,,,3/4,,,2,1,,8-4[8:1],,,,1-5[8:1],,
{8},,,,,1,1b,,
{8}8,6,4,,6,8,2,,
{8}3,5,7,,5,3,1b,,
{8}7-4[8:1],,1,3-8[8:1],,,,7h[4:1],
{8},6,4,2h[8:3],,1,1b,,
{8}2,2,,3h[4:1],,4h[1591:403],,6h[4:1],
{8},8h[4:1],,2h[4:1],,3-8[2:1],,7h[1:1],
{8},,,,,,,6b,
{8},,,,,1,2,3,
{16}4-8[8:1],,,,7,,,,7h[16:3],,,1,,,8-4[4:1],,
{8},,,3h[4:1],,5,6,7,
{16}8<4[8:1],,,,,,,,3h[16:3],,,1,,,7h[8:7],,
{8},,,,,3,3b,,
{16}1/3,,,,4/2,,,,1,,,7,,,5h[8:5],,
{4},,4-8[8:1],2b,
{4}1/2,
{16}4/3,,,
{721}1,,,,,,,,,,,,,,,,,,,,,,,,,,,,,,,,,,,,,,,,,,,,,,
{768}8-4[10000:1237],,,,,,,,,,,,,,,,,,,,,,,,,,,,,,,,,,,,,,,,,,,,,,,,,,,,,,,,,,,,,,,,,,,,,,,,,,,,,,,,,,,,,,,,,,,,,,,,,,,,,,,,,,,,,,,,,,,,,,,,,,,,,,,,,,,,,,,,,,,,,,,,,,,,,,,,,,,,,,,,,,,,,,,,,,,,,,,,,,,,,,,,,,,,,,,,,,,,,,,,,,,,,,,,,,,,,,,,,,,,,,,,,,,,,,,,,,,,,,,,,,,,,,,,,,,,,,,,,,,,,,,,,,,,,,,,,,,,,,,,,,,,,,,1-5[8:1],,,,,,,,,,,,,,,,,,,,,,,,,,,,,,,,,,,,,,,,,,,,,,,,,,,,,,,,,,,,,,,,,,,,,,,,,,,,,,,,,,,,,,,,,,,,,,,,
{8},,,,,2,2b,,
{16}7^4[8:1],,,,,,,,8,,,1,,,2h[8:5],,
{8},3,,,1h[4:1],,8h[4:1],,
{8}7^4[8:1],,,8^3[8:1],,,,2h[4:1],
{8},3^8[8:1],4,,,7b,7b,,
{8}1,1,,2h[4:1],,3h[1591:403],,5h[4:1],
{8},7h[4:1],,1h[4:1],,3-8[2:1],,7h[1:1],
{8},,,,,,,6>2[8:5],,,,,,,,
E
&inote_5=(147.0){1},
{8}1,,3,5,,7,,1/2,
{8},1-4[8:3]/2-6[8:3],,,,,,,
{8}8,,6,4,,2,,7/8,
{8},7-3[8:3]/8-5[8:3],,,,,,,
{8}4,,2,6,,5/1,,2/6,
{8},3/7,,8/4,,5h[4:1]/8^3[8:5],,,
{1}4h[1:1],
{8},,,2,2-6[8:1],,,,
{8}1,,3,5,,7,8,1,
{16},,8,,6,,4,,2h[4:1],,,,,,7,8,
{8}7,,8,1,,1/2,,8,
{16},,1-5[8:1],,7-4[8:1],,,,,,,,,,2,3,
{8}4-8[8:1],,7,6,,4/5,,2/7,
{8},2,1,8h[4:1],,7,6,5h[4:1],
{8},4,3,2h[4:1],,3^8[8:7],,,{1},
{8}8,7,6,5,6,5,4,3,
{8}4,5,6,5,6,7,8,1,
{8}1,3,5,7,8,6,4,2,
{8}1,2,3,4,5,6,7,8,
{8}2h[8:1],3,7h[8:1],6,2h[8:1],1,7h[8:1],8,
{8}3h[8:1],4,5h[8:1],6,6h[8:1],5,4h[8:1],3,
{8}1h[8:3],,,2h[4:1],,,3^8[16:1],3,
{8}6^1[16:1],,,2b,,,,,
{16}8h[4:1],,,7,7,,6,,2h[4:1],,,3,3,,4,,
{16}6h[4:1],,,5,5,,4,,8h[4:1],,,1,1,,2,,
{16}2,,,4,4,,6,,7,,,1,1,,3,,
{16}2,,,8,8,,6,,3-7[8:1],,7-4[8:1],,,,,,
{16}2h[4:1],,,3,3,,4,,7h[4:1],,,6,6,,5,,
{16}1h[4:1],,,8,8,,2/7,,6-2[8:1],,2-5[8:1],,,,,,
{8}4h[8:3],,,5h[8:5],,,,,
{16}7b,,,8b,,,1b,,,,,,,,,,
{4}3-6[8:1],2-6[8:1],1^6[8:1],,
{4}1-4[8:1],8-4[8:1],7^4[8:1],,
{4}3h[4:1],4,3h[4:1],5,
{4}6h[4:1],7,6h[4:1],8,
{4}2/1,4/3,6/5,7/8,
{4}1/5,8/4,7/3,2/6,
{2}3^8[8:1],6^1[8:1],
{8}1,2,3,4,5,6,7,8,
{4}1^4[8:1],7^4[8:1],8-4[8:1],,
{4}8^5[8:1],2^5[8:1],1-5[8:1],,
{4}4h[4:1],2h[4:1],8h[4:1],6h[4:1],
{4}3h[4:1],5h[4:1],8h[4:1],1h[4:1],
{4}8,3/1,7/2,5/4,
{4}6/7,1/3,7/8,6/7,
{8}4/3,,5/7,,2/1,,2/6,4/7,
{16},5/1,,2/6,,7h[16:5]/3h[16:5],,,,,,,8/4,7/3,2/6,5b/1b,
{8}4^7[8:1],3,2,1,8,7,6,,
{8}7^4[8:1],8,1,2,3,4,5,,
{8}1-5[4:1],3,2,1,8,7,6,,
{8}5-1[4:1],2,3,4,5,6,7,,
{8}7/3h[8:3],7,1,1,8/4h[8:3],8,2,2,
{8}1/5h[8:3],1,7,7,8/6h[8:3],8,2,2,
{8}2h[2:1],3,4,5,6h[2:1],7,8,1,
{8}2h[2:1],1,8,7,6h[2:1],5,4,3,
{8}1^6[4:1],3,2,1,8,7,6,5,
{8}4^7[8:1],7-3[8:1],,,2^7[8:1],7^4[8:1],,,
{4}2-5[8:1],2,8-4[8:1],8,
{4}2/1,5/6,7/8,4/3,
{8}1,1h[4:1],,5h[4:1],,3h[4:1],,7h[4:1],
{8},4h[4:1],,2h[4:1],,8h[4:1],,1h[8:13],
{8},,,,,,,8h[1251:782],
{8},,,,,2,1,8b,
{8}7-3[8:1],,7,,6/2,3^6[8:1]/7^2[8:1],,,
{8},7/3,8/4,1/5,2h[4:1]/6h[4:1],,,,
{8}1^6[8:1],,1,,2,3-6[8:1],,3-7[8:1],
{8},3^8[8:1],,,,,,,
{8}1-5[8:1],,1,,6/5,1/7,,3,
{8}1,7,,6,4,2,,1,
{2}1-4[8:1]/5-8[8:1],3-6[8:1]/7-2[8:1],
{2}1-6[8:1]/5-2[8:1],3-8[500:63]/7-4[8:1],
{8}7-3[8:1],,,,4/7,2/1,,8/7,
{8},2/5,,,6h[4:1],,5,,
{8}4/7,,3/8,1/2,,7,,8,
{8},1^6[8:3],2,,,,,,
{8}8,8h[4:1],,4h[4:1],,6h[4:1],,2h[4:1],
{8},5h[4:1],,7h[4:1],,1h[4:1],,8h[8:15],
{8},,,,,,,1h[8:7],,,,,,,,
E
