&title=つけまつける
&artist=きゃりーぱみゅぱみゅ [PV]
&wholebpm=145.0
&lv_1=1
&lv_2=4
&lv_3=7
&lv_4=8
&lv_5=9
&inote_1=(145.0){1},,,,,,,,,,,,
{1}7,,
{1}6,,
{1}7,,
{1}8,,
{1}1,,
{1}2,,
{1}1,,
{1}8,,
{1}7-2[2:1],,
{1}2,,
{1}2-7[2:1],,
{1}8,
{1}8b,
{1}7h[4:3],,
{1}6h[4:3],,
{1}5h[4:3],,
{1}4-1[2:1],,
{1}1,
{1}1,
{1}2,
{1}2,
{1}1,
{1}1,
{1}8,
{1}8,
{1}7-2[2:1],,
{1}2-7[2:1],,
{1}7,
{1}7,
{1}8,
{1}8b,
E
&inote_2=(145.0){1},,,,
{1}2,,
{1}1,,
{1}2,,
{1}3,
{2}2,2b,
{1}1,
{1}8,
{1}7,
{1}6,
{1}8,
{1}1,
{1}2,
{1}3,
{1}2h[4:1],
{1}1h[4:1],
{2}8,8,
{2}7,7,
{1}8h[4:1],
{1}1h[4:1],
{2}2,2,
{4}3,3,3b,,
{1}2-7[2:1],,
{2}7,7,
{2}6,6,
{1}7-2[2:1],,
{2}1,1,
{4}8,8,8b,,
{1}7h[8:3],
{1}6h[8:3],
{1}7h[8:3],
{1}8h[8:3],
{1}1h[8:3],
{1}2h[8:3],
{1}2,
{1}1b,
{4}8,8,7,,
{4}8,8,1,,
{4}2,2,3,,
{2}2,1/8,
{4}7,7,7,,
{4}6,6,6,,
{4}7,7,7,,
{4}8,8,1,1b,
{2}2h[4:1],3h[4:1],
{4}2,2,2,,
{2}5h[4:1],6h[4:1],
{4}5,5,5,,
{1}4-1[2:1],,
{2}1,1,
{2}8,8b,
E
&inote_3=(145.0){1},,,,
{4}1,1,2,2,
{4}3,3,4h[4:1],,
{4}8,8,7,7,
{4}6,6,5h[4:1],4,
{4}2,1,8,7,
{4}3,4,5h[4:1],,
{4}5,6,7,8,
{4}1,2,3h[2000:499],4,
{4}2h[4:1],3,7h[4:1],6,
{4}1/8,2/7,1/8,,
{4}7,8,1,2,
{4}1/2,2/1,7/8,,
{4}6,5,4,3,
{4}1h[4:1],8h[4:1],7h[4:1],,
{4}2,7,3,6,
{4}3/6,2/7,4/5,1b/8b,
{4}2h[4:1],3,4h[4:1],5,
{4}1h[4:1],8,7h[4:1],6,
{4}1/8,4/5,1/8,4/5,
{4}3,4,6h[4:1],5,
{4}7h[4:1],6,2h[4:1],3,
{4}4h[4:1],5,8h[4:1],1,
{4}2,3,4,4-1[2:1]/5-8[2:1],{1},
{4}2h[4:1],3,7h[4:1],6,
{4}2h[4:1],6h[4:1],2h[4:1],,
{4}1,1,8,8,
{4}4,5,1/8,,
{4}1,3,5,7,
{4}8,1,8-5[8:1],,
{4}3,4,5,6,
{4}4,5,8b/1b,,
{8}4/5,,,4/5,4/5,,8,,
{8}5/4,,,4/5,4/5,,1,,
{8}5/4,,,5/4,5/4,,8,,
{8}5/4,,,4/5,4/5,,1,,
{8}5,,,5,5,,8,,
{547}4,,,,,,,,,,,,,,,,,,,,,,,,,,,,,,,,,,,,,,,,,,,,,,,,,,,,,,,,,,,,,,,,,,,,,,,,,,,,,,,,,,,,,,,,,,,,,,,,,,,,,,,,,,,,,,,,,,,,,,,,,,,,,,,,,,,,,,,,,,,,,,,,,,,,,,,,,,,,,,,,,,,,,,,,,,,,,,,,,,,,,,,,,,,,,,,,,,,,,,,,,,,,,,
{8}4,
{781}4,,,,,,,,,,,,,,,,,,,,,,,,,,,,,,,,,,,,,,,,,,,,,,,,,,,,,,,,,,,,,,,,,,,,,,,,,,,,,,,,,,,,,,,,,,,,,,,,,,,,,,,,,,,,,,,,,,,,,,,,,,,,,,,,,,,,,,,,,,,,,,,,,,,,,,,,,,,,,,,,,,,,,,,,,,,,,,,,,,,,,,,,,,,,,,,,,,
{4}1,
{4}2,4,7,5,
{4}4,5,1h[4:1],8b,
{4}8h[4:1],1,4h[4:1],5,
{4}3,1,1-5[8:1],,
{4}6,7,8,1,
{4}1/2,1/8,7/8,,
{4}7h[4:1],6,2h[4:1],3,
{4}1,8,3/6,,
{4}6,5,4,3,
{4}1,8,2h[4:1],6,
{4}2h[4:1],3,7h[4:1],6,
{4}2h[4:1],6h[4:1],2h[4:1],3,
{4}2h[4:1],3,7h[4:1],6,
{4}7h[4:1],3h[4:1],7h[833:208],6,
{4}5,
{835}3,,,,,,,,,,,,,,,,,,,,,,,,,,,,,,,,,,,,,,,,,,,,,,,,,,,,,,,,,,,,,,,,,,,,,,,,,,,,,,,,,,,,,,,,,,,,,,,,,,,,,,,,,,,,,,,,,,,,,,,,,,,,,,,,,,,,,,,,,,,,,,,,,,,,,,,,,,,,,,,,,,,,,,,,,,,,,,,,,,,,,,,,,,,,,,,,,,,,,,,,,,,,,,,,,
{833}1,,,,,,,,,,,,,,,,,,,,,,,,,,,,,,,,,,,,,,,,,,,,,,,,,,,,,,,,,,,,,,,,,,,,,,,,,,,,,,,,,,,,,,,,,,,,,,,,,,,,,,,,,,,,,,,,,,,,,,,,,,,,,,,,,,,,,,,,,,,,,,,,,,,,,,,,,,,,,,,,,,,,,,,,,,,,,,,,,,,,,,,,,,,,,,,,,,,,,,,,,,,,,,,,
{4}7,
{4}6,8,1h[4:1],,
{4}2,2,1,1,
{4}8,8,7,1b/8b,
E
&inote_4=(145.0){1},,,,
{8}7h[4:1],,1,1,2h[4:1],,8,8,
{8}7,1,2,8,6h[4:1],,,,
{8}2,1,2,,6,7,6,,
{4}2h[4:1],6h[4:1],8h[4:1],,
{8}2h[4:1],,8,8,7h[4:1],,1,1,
{8}2,8,7,1,3h[4:1],,,,
{8}7,8,1h[4:1],,8h[4:1],,1,2,
{8}1h[4:1],,8,7,8h[4:1],,,,
{8}2,,8,8,7,,1,1,
{8}2,8,7,6,5,,,,
{8}6,7,8,7,6,,4,3,
{4}2,5,1,,
{8}7,,1,1,2,,8,8,
{8}7,1,2,3,4,,,,
{8}3,2,1,2,3,,5,6,
{8}7,,2,3,2,,,,
{4}6,1,6,1,
{8}6,5,4,5,6,,,,
{4}3,8,3,8,
{8}3,2,3,4,5,,,,
{4}7,8/1,6,8/1,
{8}3,4,5,4,3,,,,
{4}2,8/1,3,8/1,
{8}6,5,1,2,3,,,,
{4}2/8,1/7,2/8,1/7,
{4}3/4,5/6,4/3,,
{8}2,,1,1,7,,8,8,
{1}3^6[4:1],
{2}7h[4:1]/1h[4:1],8h[4:1]/2h[4:1],
{4}5/6,4/5,3/4,,
{4}1,2/8,8,7/1,
{8}8,8,7,8,1b,,,,
{4}1h[4:1],2h[4:1],3h[4:1],1,
{4}8h[4:1],7h[4:1],6h[4:1],8,
{4}4h[4:1],3h[4:1],2h[4:1],7,
{4}5h[4:1],6h[4:1],7h[4:1],2,
{4}3h[4:1],4h[4:1],5h[4:1],6,
{8}6h[4:1],,5h[4:1],,4h[4:1],,3,3h[8:5],
{8},,,,,7,7,7h[8:7],{1},
{8}2h[4:1],,8,8,7h[4:1],,1,1,
{8}2,8,7,1,3h[4:1],,,,
{8}6,7,6,,2,1,2,,
{4}7h[4:1],3h[4:1],1h[4:1],,
{8}7h[4:1],,1,1,2h[4:1],,8,8,
{8}7,1,2,8,6h[4:1],,,,
{8}2,1,8h[4:1],,1h[4:1],,8,7,
{8}8h[4:1],,1,2,1h[4:1],,,,
{4}2h[4:1],1h[4:1],7h[4:1],8h[4:1],
{8}2,3,4,5,4,,,,
{4}7h[4:1],8h[4:1],2h[4:1],1h[4:1],
{8}7,6,5,4,5,,,,
{8}7,,8,1,2,,1,8,
{8}7,8,1,2,3,,,,
{8}6,7,8,7,6,,8,1,
{8}2,,1,8,1,
E
&inote_5=
(145.0){1},
{16}7,8,1,2,3,4,5,6,7,8,,,2,,,4,
{16},,,6,,,,,,,,8h[16:21],,,,,{1},
{4}2h[4:7],3,,4,
{4},5,,6>2[2:1],
{4},1,,8,
{4},7,,6,
{4}5h[4:7],7,,8,
{4},1,,2,
{4}8h[2:1],7,6h[4:1],5,
{4}3h[2:1],2,1,8b,
{8}2,,3,4,5,,3,2,
{8}1,8,7,6,5,,,,
{8}7,8,1,2,3,,1,8,
{4}7,1,3h[4:1],,
{8}2,,8,7,6,,8,1,
{8}2,3,4,5,6,,,,
{8}5,4,3,2,1,,8,7,
{8}8,8,1,2,3,,,,
{2}3/4^7[8:1],6/5^2[8:1],
{8}1,8,7,6,5h[4:1],,,,
{8}6^1[8:1],,2,2,3^8[8:1],,7,7,
{8}6,5,4,3,2h[4:1],,,,
{2}3/4^7[8:1],6/5^2[8:1],
{8}1,8,7,6,5h[4:1],,,,
{4}6/1,3/1,8/3,7/5,
{8}4,3h[8:3],4,6,7h[4:1],,8b,,
{8}1h[4:1],2,3,,8h[4:1],7,6,,
{8}2h[4:1],3,4,,6h[4:1],5,4,,
{8}3h[4:1],4,5,,7h[4:1],
{993}6,,,,,,,,,,,,,,,,,,,,,,,,,,,,,,,,,,,,,,,,,,,,,,,,,,,,,,,,,,,,,,,,,,,,,,,,,,,,,,,,,,,,,,,,,,,,,,,,,,,,,,,,,,,,,,,,,,,,,,,,,,,,
{8}5,,3,
{8}5,7,8,1h[4:1],,,,
{8}1/8h[4:1],7,6,,1/2h[4:1],3,4,,
{8}8/7h[4:1],6,5,,3/4h[4:1],5,6,,
{8}7h[4:1],,8,1,2h[8:3],3,4,5,
{8}3,1,8,7,6^1[4:1],,,,
{8}2h[4:1],,3,4/5,,7,7b,,
{8}6h[4:1],,5,4/3,,1,1b,,
{8}3h[4:1],,4,6/5,,8,8b,,
{8}7h[4:1],,6,4/5,,2,2b,,
{8}3h[4:1],,4,5,6,7,8,,
{8}7h[4:1],,6,5/3h[4:1],,2,1,8h[8:7],
{8},1,2,3,4,5,6,7^4[8:3],
{8},2,1,8,7,6,5,4,
{8}1/3^6[4:1],,2,3,4^1[4:1],,6,5,
{8}4,3,2,1,8h[4:1],,,,
{8}1/3<7[4:1],,2,3,4^1[4:1],,5,4,
{2}3^6[4:1],7b,
{8}7/5^2[4:1],,6,5,4^7[4:1],,2,3,
{8}4,5,6,7,8h[4:1],,,,
{8}1^6[4:1],,2,1,8^3[4:1],,7,8,
{4}1^6[4:1],6^3[4:1],3^8[4:1],,
{4}7h[4:1],5h[4:1],3h[4:1],5h[4:1],
{8}6,7,6,5,4^7[4:1],,,,
{4}1h[4:1],3h[4:1],5h[4:1],3h[4:1],
{8}2,1,8,7,6^1[4:1],,,,
{8}8^5[4:1],,1,8,7^2[4:1],,5,6,
{8}7^4[4:1],3,2,1,8^3[4:1],,,,
{8}1^6[4:1],6,5,4,3^6[4:1],,7,8,
{8}1^6[4:1],,2,1,8^3[4:1],,,,,
E
