&title=おちゃめ機能
&artist=ゴジマジP
&wholebpm=150
&demo_seek=14.3
&demo_len=12.7
&lv_1=2
&lv_2=5
&lv_3=8
&lv_4=9
&lv_5=13+
&des_4=譜面-100号
&des_5=mai-Star
&inote_1=(150.0){1},,,,,
{1}1,
{1}2,
{1}3,
{1}4,
{1}5,
{1}6,
{1}7,
{1}8,
{1}1-4[2:1],,
{1}7,
{1}7,
{1}6,
{1}6,
{1}7,
{1}7,
{1}8,
{2}8,8b,
{1}1h[2:1],
{1}1,
{1}2h[2:1],
{1}2,
{1}3h[2:1],
{1}3,
{1}4h[2:1],
{1}4-1[2:1],
{4},,,8,
{4},,,7,
{4},,,8,
{4},,,1,
{4},,,1,
{4},,,2,{1},
{1}1b/8b,
{1}1,
{1}1,
{1}2,
{2}1,1,
{1}8,
{1}8,
{1}7,
{1}8b,
{4}1,1,,,
{4}2,2,,,
{4}3,3,,,
{4}4,4,,,
{1}3,
{1}2,
{1}1,
{1}8,
{1}7h[1:1],
{4},,,8b,
E
&inote_2=(150.0){1},,,,
{8},,,2/7,,,,,
{2}2,7,
{2}2,7,
{2}4/6,3/5,
{2}2h[4:1],7h[4:1],
{2}7/2,7/2,
{2}4/6,5/3,
{4}5,4,5,4,
{1}3-6[4:1],
{1}7/2,,
{2}2,7,
{1}2h[2:1],
{2}8,1,
{2}3/4,6/5,
{4}6,7,,,
{4}3,2,,,
{4}7,2,,,
{4},2,7,8/1,{1},
{2}8h[4:1],1h[400:99],
{2}1/8,4/5,
{2},2b,
{2}3/6,6/3,
{1}7-2[2:1],,
{4},5,4,5b,
{4},4,5,4,
{4},5,6,5,
{4},3,4,3,
{2},2b,
{4},4,5,4,
{4},5,6,5,
{4},3,4,3,
{1}1b,
{2}2,7,
{2}2,7,
{2}6/4,5/3,
{2}2h[4:1],7h[4:1],
{2}7/2,7/2,
{2}4/6,5/3,
{4}5,4,5,4,
{1}3-6[4:1],
{2}7/2,7,
{2}2,4/5,
{1}7/2,
{2}2b,7b,
{4}3b,3b,,,
{2},4/5,
{4}2,2b,,,
{4},8/3,,,{1},
{4},,1,2b/7b,
E
&inote_3=(150.0){1},
{4}3,4,3,4,
{4}6,5,6,5,
{4}3,6,3,6,
{16}2,,,
{803}7,,,,,,,,,,,,,,,,,,,,,,,,,,,,,,,,,,,,,,,,,,,,,,,,,,,,,,,,,,,,,,,,,,,,,,,,,,,,,,,,,,,,,,,,,,,,,,,,,,,,,,,,,,,,,,,,,,,,,,,,,,,,,,,,,,,,,,,,,,,,,,,,,,,,,,
{1000}8b,1b,,,,,,,,,,,,,,,,,,,,,,,,,,,,,,,,,,,,,,,,,,,,,,,,,,,,,,,,,,,,,,,,,,,,,,,,,,,,,,,,,,,,,,,,,,,,,,,,,,,,,,,,,,,,,,,,,,,,,,,,,,,,,,,,,,,,,,,,,,,,,,,,,,,,,,,,,,,,,,,,,,,,,,,,,,,,,,,,,,,,,,,,,,,,,,,,,,,,,,,,,,,,,,,,,,,,,,,,,,,,,,,,,,,,,,,,,,,,,,,,,,,,,,,,,,,,,,,,,,,,,,,,,,,,,,,,,,,,,,,,,,,,,,,,,,,,,,,,,,,,,,,,,,,,,,,,,,,,,,,,,,,,,,,,,,,,,,,,,,,,,,,,,,,,,,,,,,,,,,,,,,,,,,,,,,,,,,,,,,,,,,,,,,,,,,,,,,,,,,,,,,,,,,,,,,,,,,,,,,,,,,,,,,,,,,,,,,,,,,,,,,,,,,,,,,,,,,,,,,,,,,,,,,,,,,,,,,,,,,,,,,,,,,,,,,,,,,,,,,,,,,,,,,,,,,,,,,,,,,,,,,,,,,,,,,,,,,,,,,,,,,,,,,,,,,,,,,,,,,,,,,,,,,,,,,,,,,,,,,,,,,,,,,,,,,,,,,,,,,,,,,,,,,,,,,,,,,,,,,,,,,,,,
{4}3,8/1,6,8/1,
{4}2,2/1,7,8/7,
{4}4,2/7,5,2/7,
{4}4/3,3b/4b,6/5,5b/6b,
{4}6,8/1,3,8/1,
{4}4,2/7,5,2/7,
{4}3,5/4,6,5/4,
{1}1^6[2:1]/5^2[2:1],
{4}1h[4:7],2,3,4,
{4}5,6,7,8b,
{4}1h[4:1],2,8h[4:1],7,
{4}2h[4:1],1,7h[4:1],8,
{4}3h[4:1],4,6h[4:1],5,
{4}4,5,3,6,
{4}7h[4:1],6,2h[4:1],3,
{4}8h[4:1],7,1h[4:1],2,
{4}8h[4:1],1,1h[4:1],8,
{2}6h[4:1]/7h[4:1],1h[4:1]/2h[4:1],
{4}4,5,4,4/5,
{4}3,6,3,4/5,
{4}3,4,3,3/4,
{4}6,5,6,5/6,
{4}3,5,4,6,
{2}3h[4:1],8h[4:1],
{2}1-4[8:1],8-5[8:1],
{4}3,6,4,5b,
{4}3/4,3/4,5/6,5/6,
{4}3/4,5/6,4/3,6/5,
{4}3/4,3/5,6/5,6/4,
{4}3/4,3/4,5/6,5/6,
{4}3,6,4,5,
{4}4,6,3,5,
{4}3,4,6,5,
{16}3,,,5,,,8b,,,,,,,,,,
{4}3,8/1,6,1/8,
{4}2,2/1,7,8/7,
{4}4,2/7,5,7/2,
{4}4/3,3/4,6/5,6/5,
{4}6,8/1,3,8/1,
{4}4,7/2,5,7/2,
{4}3,5/4,6,4/5,
{1}1^6[2:1]/5^2[2:1],
{4}7/2,2,1,1/2,
{4}8,7,8,8/7,
{4}2,7,2,5/4,
{4}3,6,3,1/8,
{2}1-5[8:1],8-4[8:1],
{2}2-6[8:1],7-3[8:1],
{2}1h[2:1],8,
{4}2,1,8,7,
{4}6,3,5,4,
{4}5,3,6,4b,
E
&inote_4=(150.0){1},
{4}4,5,4,5,
{4}4,5,4,5,
{4}4,5,4,5,
{16}8,,,3,,,2/7,,,,,,,,,,
{4}3,2/7,6,2/7,
{4}1,1,3/7,2/1,
{4}4/6,7/8,5/3,2/1,
{4}2/6h[4:1],2,7/3h[4:1],7,
{4}1/2h[4:1],8,8/7h[4:1],1,
{4}4/6,8/7,5/3,2/1,
{4}6h[4:1],3h[4:1],4h[4:1],5,
{1}2-5[2:1]/6-1[2:1],
{1}2b/7b,
{4}4h[4:1],5h[4:1],4h[4:1],5h[4:1],
{4}2h[2:1],4,7h[2:1],5,
{4}2h[1:1],4,6,4,
{4}7,4,2,5,
{2}4h[4:1]/3h[4:1],5h[4:1]/6h[4:1],
{4}6h[4:1],5h[4:1],3h[4:1],4,
{4}3h[4:1],4h[4:1],6h[4:1],5,
{4}6,4,5,3,
{4}4h[4:1],1h[4:1],7,3/6,
{4}5h[4:1],4h[4:1],5h[4:1],4h[4:1],
{4}7h[2:1],6,2h[4:1],3,
{2}7h[4:1]/1h[4:1],3h[4:1]/5h[4:1],
{4}1,1,1,,
{4}2/6,4,7/3,5,
{1}3-6[2:1]/7-2[2:1],
{4}8,,5,4,
{4}5/6,4/3,5/6,3b,
{4}4,5,3/4,6/5,
{4}4,5,3/4,6/5,
{4}4,5,4/3,6/5,
{4}4/3,4/3,2/5h[4:1],2,
{4}4,5,3/4,6/5,
{4}4,5,4/3,5/6,
{4}3/4,5/6,3/4,6/5,
{16}7,,,4,,,1b,,,,,,,,,,
{4}3,2/7,6,2/7,
{4}1,1,3/7,2/1,
{4}4/6,8/7,5/3,2/1,
{4}2/6h[4:1],2,7/3h[4:1],7,
{4}1/2h[4:1],8,8/7h[4:1],1,
{4}6/4,8/7,5/3,2/1,
{4}6h[4:1],3h[4:1],4h[4:1],5,
{1}2-5[2:1]/6-1[2:1],
{4}2b/7b,6-2[4:1],,3-7[4:1],
{4},,6/3,1^4[4:3]/8^5[4:3],{1},
{4}1/7h[4:1],1,8/2h[4:1],8,
{4}8^5[4:1],,,4-8[4:1]/5-1[4:1],
{2},5h[4:1]/4h[4:1],
{4}2/6h[4:3],2h[2:1],,,
{4}4,7b/1b,4,4,
{4}4h[4:1],5h[4:1],4h[2:1],5,
{8}5h[4:1],,4h[4:1],,8,3,6b,
E
&inote_5=(150.0){1},
{16}3,,3,,3,,6,6,,4,5,,3,,6,,
{16}4,,4,,4,,5,5,,3,6,,4,,5,,
{16}3,,3,,3,,6,6,,3,4,,6,,5,,
{16}1/2,,,7/8,,,1b/8b,,,,2,,2,,8,,
{16}7,,7,,1,8,1,8,,,3,,3,,5,,
{16}6,,6,,4,5,4,5,,,7,,7,,6,,
{16}3,,3,,2,7,1,8,,,1,,1,,1,,
{8}7/8,,8/3,,1/2,2/1,1b/6b,,
{16}1,,8,,1,7,8,2,,,6,,5,,6,,
{16}3,,4,,3,5,6,4,,,6,,5,,4,,
{16}3,,4,,5,6,4,3,,,2,,1,,8,,
{8}7,5/2,1^6[4:1]/5^2[4:1],,,,,,
{16}2b/7b,,,,8,,,1,,2,3,,4,,,,
{16}5,,6,,5,,,4,,7,2,,1/8,,,,
{8}1h[8:3],2,3,2,8h[8:3],7,6,7,
{8}2h[8:3],3,4,3,6h[8:3],5,4,5,
{8}2h[8:3],7,6,7h[8:3],2,3,2h[8:3],6,
{8}5,6h[8:3],3,4,3h[8:3],7,6,7,
{8}8,5,8,5,7,6,7,6,
{8}6-3[8:1],,,4,4/7-2[8:1],,,1,
{8}1,2,3,4,4,3,2,1,
{4}3/4,8/7,1/2,5b/6b,
{16}2,2,1,,2,,1/8,,7,7,8,,7,,8/2,,
{16}3,4,6,,3,,6/3,,4,4,5,,4,,4/5,,
{16}4,4,5,,4,,3/5,,3,4,6,,3,,6/4,,
{16}3,4,4,,3,,3/4,,6,6,5,,6,,5/6,,
{16}8,7,5,,8,,5,,7,7,6,,7,,6,,
{16}3-8[8:1],8,8,,,,7,,7-4[8:1],4,4,,,,3,,
{8}1,2,3,4,5,6,7,8,
{4}3/4,8/7,2/1,2b/7b,
{8}2h[8:3],7,6,7h[8:3],2,3,2h[8:3],6,
{8}5,6h[8:3],3,4,3h[8:3],7,6,7,
{8}1h[8:3],2,3,2,8h[8:3],7,6,7,
{8}2h[8:3],3,4,3,6h[8:3],5,4,5,
{16}2,1,2,1,8,1,8,1,8,7,8,7,8/1,,,,
{16}6,5,6,5,4,5,4,5,4,3,4,3,4/5,,,,
{16}3,6,4,5,3,6,4,5,3,4,6,5,3/6,,,,
{16}3b/2b,,,5b/4b,,,8b/1b,,,,1,,1,,4,,
{16}4,,2,,3,2,3,2,,,8,,8,,5,,
{16}5,,7,,6,7,6,7,,,2,,7,,1,,
{16}8,,1,,8,7,2,1,,,3,,4,,5,,
{8}7/8,,8/3,,1/2,1/2,1b/6b,,
{781}4,,,,,,,,,,,,,,,,,,,,,,,,,,,,,,,,,,,,,,,,,,,,,,,,,,,,,,,,,,,,,,,,,,,,,,,,,,,,,,,,,,,,,,,,,,,,,,,,,
{16}5,,4,5,4,
{547}5,,,,,,,,,,,,,,,,,,,,,,,,,,,,,,,,,,,,,,,,,,,,,,,,,,,,,,,,,,,,,,,,,,,,,,,,,,,,,,,,,,,,,,,,,,,,,,,,,,,,,,,
{8}2,6,3,
{16}7,,3,,2,6,3,7,,,1,,5,,4,,
{16}8,,2,,1,5,4,8,,,3,,5,,6,,
{8}4,5/1,1^6[4:1]/5^2[4:1],,,,,,
{16}1b/8b,,,,,,7,2,7,,2,,1,8,1,,
{8}4,5,3,6,2,7,1,8h[8:5],
{8}2,3,2,3,7,6,7,6,
{16}3,,4,,6,,5,,,4,5,,,,4,5,
{8}6,7,7-2[8:1],2,,1,8,7,
{8}6,5,4,3,,8,2,8/2,
{16},,8b/2b,,8b/2b,,,,,,,,,,4,5,
{8}4/6,8b/2b,2,7,,2,7,,
{16}3,,,,6,,,4,,5,4,,5,,,,
{16}2,,7,,2,,,7,,,1,,7b/2b,
E
