&title=Sweets×Sweets
&artist=Team-D
&wholebpm=132
&demo_seek=0.55
&demo_len=14.45
&lv_1=2
&lv_2=6
&lv_3=7
&lv_4=9
&lv_5=11
&des_4=譜面-100号
&des_5=maimai TEAM
&inote_1=(132.0){1},
{4},2,,2,
{4},1,,1,
{4},8,,8,
{4},7,,7,
{4},8,,8,
{4},1,,1,
{4},2,,3-6[2:1],{1},
{4},7,,7,
{4},8,,8,
{4},1,,1,
{4},2,,2,
{4},1,,1,
{4},8,,8,
{4},7,,6-3[2:1],{1},
{4},,,1,
{4},8,8,,
{4},7,,6,
{4},5,,4,
{4},5,,6,
{4},7,7,,
{4},8,,1,
{4},2,2b,,
{4}1,1,1,,
{4}8,8,8,,
{4},7,,8,
{4},1,,2,
{4}1,1,1,,
{4}8,8,8,,
{4},7,,7b,
{2},6,
{2}6,5,
{2}5,4,
{2}4,3,
{2}3,2,
{2}2,1,
{2}1,8,
{1}8-5[10000:5001],,
{2}6,7,
{2}7,8,
{2}8,1,
{2}1,2,
{2}2,3,
{2}3,4,
{1}4-1[2:1],,
{4},2h[4:3],,,
{4},1h[4:3],,,
{4},8h[4:3],,,
{4},1/8,,,
{4},7/2,
E
&inote_2=(132.0){1},
{4}2,1,2,1,
{4}8,7,,,
{4}7,8,7,8,
{4}1,2,,,
{4}2,1,2,1,
{4}8,7,,,
{4}2,1,2,1,
{1}8-5[4:1],
{4}8,7,8,7,
{4}6,5,,,
{4}2,3,2,3,
{4}4,5,,,
{4}7,6,7,6,
{4}5,4,,,
{4}2,3,2,3,
{1}3-6[4:1],
{4},6,6,6,
{4}7,8,1,,
{4},3,3,3,
{4}2,1,8,,
{4},7,7,7,
{4}6,5,4,,
{4},2,2,2,
{4}3,4,5/4,,
{4}7,8,8b,,
{4}2,1,1b,,
{4}2,3,4,5,
{4}6,7,8,,
{4}7,8,8b,,
{4}2,1,1b,,
{4}2,3,4h[2:1],,
{4},2,1,2,
{4}1,8,7,,
{4},7,8,7,
{4}8,1,2,,
{4},2,1,2,
{4}1,8,7,,
{4},2,1,2,
{4}1,8-5[4:1],,,
{4},7,6,7,
{4}6,5,4,,
{4},2,3,2,
{4}3,4,5,,
{4},7,6,7,
{4}6,5,4,,
{4},2,3,2,
{4}3,3-6[4:1],,,
{4},6h[4:3],,,
{4},7h[4:3],,,
{4},8h[1413:1063],,,
{4},1h[1413:1063],,,
{4},2-7[4:1],,,
{4},8h[1413:1063],,,
{4},
{977}1h[1413:1063],,,,,,,,,,,,,,,,,,,,,,,,,,,,,,,,,,,,,,,,,,,,,,,,,,,,,,,,,,,,,,,,,,,,,,,,,,,,,,,,,,,,,,,,,,,,,,,,,,,,,,,,,,,,,,,,,,,,,,,,,,,,,,,,,,,,,,,,,,,,,,,,,,,,,,,,,,,,,,,,,,,,,,,,,,,,,,,,,,,,,,,,,,,,,,,,,,,,,,,,,,,,,,,,,,,,,,,,,,,,,,,,,,,,,,,,,,,,,,,,,,,,,,,,,,,,,,,,,,,,,,,,,,,,,,,,,,,,,,,,,,,,,,,,,,,,,,,,,,,,,,,,,,,,,,,,,,,,,,,,,,,,,,,,,,,,,,,,,,,,,,,,,,,,,,,,,,,,,,,,,,,,,,,,,,,,,,,,,,,,,,,,,,,,,,,,,,,,,,,,,,,,,,,,,,,,,,,,,,,,,,,,,,,,,,,,,,,,,,,,,,,,,,,,,,,,,,,,,,,,,,,,,,,,,,,,,,,,,,,,,,,,,,,,,,,,,,,,,,,,,,,,,,,,,,,,,,,,,,,,,,,,,,,,,,,,,,,,,,,,,,,,,,,,,,,,,,,,,,,,,,,,,,,,,,,,,,,,,,,,,,,,,,,,,,,,,,,,,,,,,,,,,,,,,,,,,,,,,,,,,,,,,,,,,,,,,,,,,,,,,,,,,,,,,,,,,,,,,,,,,,,,,,,,,,,,,,,,,,,,,,,,,,,,,,,,,,,,,,,,,,,,,,,,,,,,,,,,,,,,,,,,,,,,,,,,,,,,
E
&inote_3=(132.0){1},
{4}2,3,2,3,
{1}1-5[4:1],
{4}7,6,7,6,
{1}8-4[4:1],
{4}3,5,3,5,
{1}2>7[4:1],
{4}7,5,7,5,
{1}7<2[4:1],
{4}8/2,2,1/7,7,
{4}8/2h[2:1],1,8,,
{4}2/8,8,7/1,1,
{4}5/6h[2:1],4,5,,
{4}3/1,3,6/8,6,
{4}3,4,5,6,
{4}7h[4:1],3,2h[4:1],5-8[4:1],{1},
{4}1,1,2,2,
{16}3,,4,,3,,,6b,,,,,,,,,
{4}8,8,7,7,
{8}6,5,6,5,6,,,,
{4}2,2,3,3,
{16}5,,4,,5,,,4h[16:5],,,,,,,,,
{4}7,7,6,6<3[4:1],
{2},3,
{4}2/1,8/1,7/8,6,
{4}8/7,1/8,2/1,3,
{16}4/5,,,,6/3,,,,7/2,,,6,,,
{8}1-4[4:1],{1},
{4}3/4,3/2,2/1,5,
{16}5/6,,,6/7,,,6/7,,,,,,4,,,,
{16}6,,,2,,,8b,,,,,,1,,,,
{4}1,8/2,1/2,8/2,
{4}1/2,2/3,2/1,2/8,
{4},4/6,5/6,6/4,
{4}6/5,6/7,6/5,6/4,
{4},8/1,7/8,8/1,
{4}7/8,8/6,8/7,8/1,
{4},4/5,4/3,4/5,
{8}3,3-6[4:1],,,,,,,
{4},1/7h[2:1],8,1,
{4}8,6,8,1,
{4},5/3h[2:1],4,5,
{4}4,2,4,5,
{4},8/1h[2:1],2,8,
{4}2,3,2,8,
{4},4/5h[2:1],6,4,
{4}6,4-1[4:1]/5-8[4:1],,,
{4},1h[1:1],,,
{4},2h[1:1],,,
{4},3h[1:1],,,
{4},4h[1:1],,,
{4},5h[1:1],,,
{4},6h[1:1],,,
{4},
{1}7h[1:1],,
E
&inote_4=(132.0){1},
{4}2/1,7,2/1,7,
{4}5/4,5/4,5/4,,
{4}7/8,2,7/8,2,
{4}6,5,3,4,
{4}2/1,7,2/1,7,
{4}6/5,5/6,4/3,4/3,
{4}7,6,2,3-6[4:1],
{4},7-2[4:1],,,
{4}1/2h[4:3],7,1,7,
{4}6/3h[4:1],4,6/3h[4:1],4,
{4}8/7h[4:3],2,8,2,
{4}3/6h[4:1],5,3/6h[4:1],5,
{4}1/2h[4:3],7,1,7,
{4}7/5,6,2/4,3,
{4}2,3,7,6^3[4:1],
{4},2^7[4:1],,,
{4}8,2,5h[4:1]/6h[4:1],,
{4}7,4h[16:3]/3h[16:3],,,
{4}8,7,3/4,7,
{8}3,3,6,6,4-8[4:1],,,,
{4},7,4/5,7,
{4}2,5/4,2,,
{2}7-4[4:1],2-5[4:1],
{1}1-4[2:1],
{4}2,2,5/6,2,
{4}7,7,3/4,7,
{4}8,2,6,4,
{1}1^4[2:1]/8^5[2:1],
{4}1h[4:1],8h[4:1],7h[4:1],6,
{4}8h[4:1],1h[4:1],2h[4:1],3,
{1}3-8[2:1]/4-7[2:1],
{4},8/4,7/3,8/4,
{4}7/3,6h[2:1]/3h[2:1],,,
{4},5/1,6/2,5/1,
{4}6/2,3h[4:1],4,6h[4:1],
{4}5,8/4,7/3,8/4,
{4}3/7,5/6,5/6,4/3,
{4}4/3,7,6,2,
{2}3^6[4:1],7^2[4:1],
{4},8h[4:1],2h[4:1],6h[4:1],
{4}8h[4:1],4,1/5,4/8,
{4},1h[4:1],7h[4:1],3h[4:1],
{4}1h[4:1],5,8/4,1/5,
{4},5/3h[4:1],4h[4:1],6h[4:1],
{4}5,3/4,5/6,3/4,
{4},4/6h[4:1],5h[4:1],3h[4:1],
{8}4,7b,,2b,,,,,
{4},8^3[2:1],,,
{4},3^6[2:1],,,
{4},6^1[2:1],,,{1},
{4},1^6[2:1],,,
{4},6^3[2:1],,,
{4},3^8[2:1],,,,
E
&inote_5=(132.0){1},
{8},2,,3,,4,,5,
{8},7,,6,,5,,4,
{8},1,2,3,,2,,1,
{8},8,7,6,,7,,6,
{8},1,2,3,,8,,7,
{8},7,8,1,,2,,8,
{8},7,6,7,,6,5,2h[4:1],
{8},1,7-3[4:1],,1,,8,,
{8},2/7,,3/7,,4/7,,8/4,
{8},7/2,,6/2,,5/2,,1/5,
{8},1/6h[4:1],2,3,,2/8,,7/1,
{8},8/3h[4:1],7,6,,7/1,,2/8,
{8},1/3,2/4,1/2,,6/8,,7/6,
{8},5/7,6/8,5/6,,2/4,,3/4,
{8},1/3,2/8,8/1,,7/5,6/4,7h[4:1],
{8},8,2-6[4:1],,8,,1b,,
{16},,,,1,,1,,2/8,,,2/7,,,3,,
{16}3,,3,,4/6,,,4/5,,,5,,4,,3,2,
{16},,,,8,,8,,7/1,,,7/2,,,6,,
{16}6,,6,,5/3,,,5/4,,,4,,5,,6,7,
{16},,,,1/7h[16:7],,1,,2,,,2,,,3/6h[16:9],,
{16}3,,3,,4,,,4,,,5,,4,,3,2,
{16},,,,8/2h[16:7],,8,,7,,,7,,,6/3h[16:9],,
{16}6,,6,,5,,,5,,,4,,5,4b,5b,,
{8},2/8,,1/3,,2,3,4,
{8},1/7,,6/8,,7,6,5,
{8},3/5,,2/4,,1/3,2,1/3,
{8},6/4,,5/7,,6/8,7,6/8,
{8},2/8,,1/3,,2/4,3/5,4/2,
{8},1/7,,6/8,,7/5,6/4,5/7,
{8},3/5,,2/4^7[8:3],,,8b,,
{8}1b,,2/8h[4:1],,3,7/1h[4:1],,6,
{8}6,5,5,4,3,2,,,
{8}1,1,2,2,3,1/3h[4:1],,4,
{8},5,4,3,8/2,1/7,,,
{8}8,8,7,7,6,8/6h[4:1],,5,
{8},4,5,6,7/1,8/2,,,
{8}1,1,2,2,3,1/3h[4:1],,4,
{8}4,3/5h[4:1],,6,7^4[4:1],,1b,,
{8}8b,,7/1h[4:1],,6,2/8h[4:1],,3,
{8}3,4,4,5,6,7,,,
{8}8,8,7,7,6,8/6h[4:1],,5,
{8},4,5,6,7/1,8/2,,,
{8}1,1,2,2,3,1/3h[4:1],,4,
{8},5,4,3,2/8,1/7,,,
{8}8,8,7,7,6,8/6h[4:1],,5,
{8}5,6/4h[4:1],,3,2^5[4:1],,8b,,
{8}1b,,2/8^5[2:1],,3,3,3,4,
{8},4,4/5^8[2:1],3,3,3h[2:1],,,
{4},4/8^5[2:1],4,3,
{4}3,2/5^8[2:1],2,1,
{8}2,,2/8^5[2:1],3,3h[4:1],,,4,
{8},3,3/5^8[2:1],2,1,1h[8:7],,,
{4},8^5[2:1],,,,
E
