&title=Rooftop Run: Act1
&artist=大谷智哉「ソニック ジェネレーションズ」
&wholebpm=152
&demo_seek=1
&demo_len=14
&lv_1=2
&lv_2=5
&lv_3=7
&lv_4=11+
&lv_5=12
&lv_6=13
&des_4=譜面-100号
&des_5=ニャイン
&des_6=Techno Kitchen
&inote_1=(152.0){1},1,
{1}2,
{1}3,
{1}4,
{2}5,5,
{2}6,6,
{2}7,7,
{1}8b,
{2}1,2,
{2}1,8,
{2}8,7,
{2}8,1,
{2}2,3,
{2}4,5,
{2}6,7,
{2}8,1,
{1}2-7[2:1],,
{1}2-7[2:1],,
{1}6h[2:1],
{1}5h[2:1],
{1}4h[2:1],
{1}3h[2:1],
{4}2,2,,,
{4}1,1,,,
{4}8,8,,,
{4}7,7,,,
{2}6,6,
{2}7,7,
{2}8,8,
{2}1,1,
{1}2,
{1}3,
{1}2,
{1}1,
{1}8,
{1}7,
{2}6,6,
{2}7,7,
{2}8,8,
{1}1/8,,
{1}1/8,,
{1}1-4[2:1],,,,
{1}8-5[2:1],,,,
{2}3,3,
{2}2,2,
{2}1,1,
{2}8,8,
{2}1,1,
{2}2,2,
{2}3,3,
{2}4,4,
{4}5,5,,,
{4}6,6,,,
{4}5,5,,,
{4}4,4,,,
{4}5,5,,,
{4}6,6,,,
{4}7,7,,,
{4}8,8,,,
{1}8,
{8}1,,,1b,
E
&inote_2=(152.0){1},,,
{1}1,
{1}2,
{2}1,8,
{2}7,6,
{4}7,7,7,,
{4}1,1,1b,,
{4},8,,7,
{4},8,,7,
{4},8,,8,
{4},1/8,,8/1,
{4},1,,2,
{4},1,,2,
{4},1,,1,
{4},1/8,,8/1,
{4},6,,5,
{4},6,,5,
{4},6,,7,
{4},8,,1,
{4},3,,4,
{4},3,,4,
{4},2/7,,7/2,
{4},1/8,,1/8,
{4},1,,1/2,
{4},8,,7/8,
{4},1/2,,7/8,
{4},1/2,,8/7,
{4},1,,1/2,
{4},8,,7/8,
{4},1/2,,7/8,
{4},1/2,,8/7,
{4},6h[2:1],,,
{4},5h[2:1],,,
{4},4h[2:1],,,
{4},3h[2:1],,,
{4},2,,1,
{4},8,,7,
{4},8h[2:1],,,
{4},1h[2:1],,,
{4},2h[2:1],,,
{4},2,,3,
{4},4,,5,
{4},4,,3,
{4},2,,1,
{4},8h[2:1],,,
{4},7h[2:1],,,
{4},8,,1,
{4},2,,3,
{4},2h[2:1],,,
{4},1h[2:1],,,
{4},1,,8,
{4},7,,8b,
{4},1,,2,
{4},3,,4,
{4},3/4,,5/6,
{4},4/3,,5/6,
{4},4,,3,
{4},2,,1,
{4},1/2,,7/8,
{4},5/6,,3/4,
{4},5h[2:1],,,
{4},6h[2:1],,,
{4},7h[2:1],,,
{4},8,,1,
{4},8h[1129:568],,,
{4},7h[2:1],,,
{4},6h[1428:715],,,
{4},7,,8,{1},
{8},,,1b,
E
&inote_3=(152.0){1},
{4}1,1,1h[4:1],,
{4}8,8,8h[4:1],,
{4}2,2,2h[4:1],,
{4}7,7,7h[4:1],,
{4}8,7,6,5,
{4}4,3,2h[4:1],,
{4}2,4,6,8,
{8}7h[8:3],,,3,,,,,
{4}1,8,1,8,
{4}2,7,2,7,
{4}3,6,3,6,
{8}4h[8:3],,5,5,,,,,
{4}5,4,5,4,
{4}6,3,6,3,
{4}7,2,8,1,
{8}2h[8:3],,1,1,,,,,
{2}1h[2:1],2h[2:1],
{8}3,,,3h[8:3],,,,,
{4}6,3,7,2,
{8}1/2,,,1h[8:3]/2h[8:3],,,,,
{2}8h[2:1],7h[2:1],
{8}6,,,6h[8:3],,,,,
{4}3,6,2,7,
{8}7/8,,,7h[8:3]/8h[8:3],,,,,
{4}2h[2:1],,3,1,
{4}7h[2:1],,6,8,
{4}3,6,2,7,
{16}1/2,,,2/1,,,1/2,,,,,,,,,,
{1}7-2[2:1],
{1}3-6[2:1],
{4}7,3,6,2,
{16}2/7,,,7/2,,,8b/1b,,,,,,,,,,
{4}2,7,1,8,
{4}2,7,3,8,
{4}3,6,4,5,
{4}3,6,4,5,
{4}5h[4:3],4,,2,
{4}1h[4:3],8,,6,
{4}8,1,7,2,
{4}6,3,5,4,
{4}2/6,7/3,7/2,8b/1b,
{4}3,8,6,1,
{4}2,7,4,5,
{4}3,7,6,2,
{8}1h[8:3],,8,8,,,,,
{2}2h[2:1],1h[2:1],
{1}8h[4:3],
{4}1,8,1,8,
{16}2,,,2,,,2,,,,,,,,,,
{2}3h[2:1],4h[2:1],
{1}5h[4:3],
{4}3,6,3,6,
{16}4,,,4,,,4,,,,,,,,,,
{4}8,7,6,5,
{4}1,2,3,4,
{4}3,6,3,8,
{16}1,,,8,,,1,,,,,,,,,,
{4}1,2/1,8,8/7,
{4}3,3/4,6,5/6,
{4}1/2,1/2,8/7,7/8,
{16}8/1,,,1/8,,,8b/1b,,,,,,,,,,
{4}2,1,3,2,
{4}7,8,6,7,
{4}4,5,6,5,
{8}4,3,4,4,,,,,
{4}6,5,4,4,
{4}2,1,8,8,
{4}7,2,6,3,
{8}5,4,5,5,,,,,
{4}5h[4:1],1,8,7,
{8}8,1,8,8,
E
&inote_4=(152.0){1},
{4}8,8,3,3,
{4}1,1,6,6,
{4}7,7,4,4,
{4}2,2,5,5/4,
{8}2,2,2/1,,4/5,,5/4,,
{8}7,7,7/8,,4/5,,5/4,,
{4}3,2/1,7/8,6,
{16}2,,,4,,,6-3[4:1],,,,,,,,,,
{8}4,2,4,,5,7,5,,
{8}4,2,4,,5,7,2,4,
{8}5,7,5,,4,2,4,,
{8}5,6,3,4h[8:3],,,8,,
{8}6,8,6,,3,1,3,,
{8}6,8,6,,3,1,8,6,
{8}3,1,3,,6,8,6,,
{8}3,1,8,6h[8:3],,,,,
{4}2h[2:1],3,3h[2:1],4,
{8}4h[8:3],,5,5h[4:1],,4,3,2,
{4}1h[2:1],8,2h[2:1],3,
{16}1h[4:3],,,8^5[16:5],,,,,,,,,,,,,
{4}7h[2:1],6,6h[2:1],5,
{8}5h[8:3],,4,4h[4:1],,5,6,7,
{4}8h[2:1],1,7h[2:1],6,
{16}8h[4:3],,,1^4[16:5],,,,,,,,,,,,,
{8}8/2,1,8/2,,5/1h[4:1],,5,,
{8}1/7,8,7/1,,4/8h[4:1],,4,,
{8}2/8,1,8/2,,1/7,8,7/1,,
{8}8-4[4:1],,,1-5[4:1],,,,,
{8}7,1,2,1,8,1,3,1,
{8}2,8,7,8,1,8,6,8,
{4}7h[4:1],1h[4:1],8h[4:1],2h[4:1],
{8}3-8[4:1],,,7-4[4:1],,,,,
{8}8,1,2h[2:1],3h[8:3],,,,,
{8}1,8,7h[2:1],6h[8:3],,,,,
{8}1,2,3h[8:3],4h[8:3],,,3,,
{8}8,7,6h[8:3],5h[8:3],,,6,,
{8}2,3,4h[4:1],5h[4:1],,4,5,,
{8}7,6,5h[4:1],4h[4:1],,5,4,,
{16}3h[8:3],,,4,,,5,,6h[8:3],,,5,,,4,,
{16}2h[8:3],,,3,,,4,,7h[8:3],,,6,,,5,,
{4}2/1h[4:1],8,7/8h[4:1],1,
{16}8,,,8,1,,,1,8,,,8,1,,,1,
{16}8,,,8,1,,,1,8,,,8,1,,,1,
{16}7,,,7,1,,,1,8,,,8,2,,,2,
{16}1,,,1,8,,,8,7h[4:1],,,,,,,,
{4}8h[4:1],7h[4:1],6h[4:1],5h[4:1],
{4}1h[4:1],2h[4:1],3h[4:1],4h[4:1],
{4}6h[4:1],8h[4:1],2h[4:1],4h[4:1],
{16}7h[16:3],,,5h[16:3],,,3h[4:1],,,,6,,7,,8,,
{4}1h[4:1],2h[4:1],3h[4:1],4h[4:1],
{4}8h[4:1],7h[4:1],6h[4:1],5h[4:1],
{4}3h[4:1],1h[4:1],7h[4:1],5h[4:1],
{16}2h[16:3],,,4h[16:3],,,6b,,,,,,,,,,
{16}5,,4,,5/4,,,,5/6,,,6,5,,,,
{16}4,,5,,5/4,,,,3/4,,,3,4,,,,
{4}1h[2:1],2,5h[2:1],6,
{16}1h[4:3],,,2-7[16:5],,,,,,,,,,,,,
{16}3,,2,,3/2,,,,5/4,,,5,4,,,,
{16}6,,7,,7/6,,,,4/5,,,4,5,,,,
{4}8h[2:1],7,4h[2:1],3,
{16}8h[4:3],,,7-2[16:5],,,,,,,,,,,,,
{4}7/1h[8:7],7,3,3,
{4}2/8h[8:7],2,6,6,
{4}7/1h[8:3],3,2/8h[8:3],6,
{16}7/1h[4:3],,,2-5[16:5],,,,,,,,,,,,,
{4}2/8h[8:7],6,2,6,
{4}7/1h[8:7],3,7,3,
{4}2/8h[8:3],6,7/1h[8:3],3,
{16}2/8h[4:3],,,7-4[16:5],,,,,,,,,,,,,
{4},2/1,8/7,3/4,
{8}6,8,1,3b,
E
&inote_5=(152.0){1},
{16}2,,1,,1,,,,8,,,8,,,8,,
{16}8,,7,,7,,,,6,,,6,,,6,,
{16}3h[2:1],,2,,2,,,,1,,,8,,,7,,
{16}6h[2:1],,5,,5,,,,4,,,3,,,2,,
{16}8h[2:1],,1,,1,,,,2,,3,2,,5,4,,
{16}6h[2:1],,7,,7,,,,5,,4,5,,2,3,,
{16}1h[2:1],,8,,8,,,,7,,6,7,,4,5,,
{16}3,,2,1,2,,8,7,8,,6,5,6,,3,,
{8}8/2h[4:1],7,6h[4:1],2,3h[4:1],7,8h[4:1],1,
{8}2h[4:1],7,6h[4:1],3,4h[4:1],5,6h[4:1],3,
{8}2,6,8/4,,3,7,5/1,,
{8}7,2,8/1,7/2,,,,,
{8}8/2h[4:1],7,6h[4:1],2,3h[4:1],7,8h[4:1],1,
{8}2h[4:1],7,6h[4:1],3,4h[4:1],5,6h[4:1],3,
{8}2,6,8/4,,3,7,5/1,,
{8}7,2,8/1,7/2,,,,,
{4}2-7[8:1],6-3[8:1],2-7[8:1],6-3[8:1],
{4}2-7[8:1],8-5[8:1],4-1[8:1],,
{4}8h[4:1],2h[4:1],6h[4:1],4h[4:1],
{4}5h[4:1],3h[4:1],7h[4:1],1h[4:1],
{4}8-3[8:1],1-6[8:1],7-4[8:1],2-5[8:1],
{4}6^1[8:1],2^5[8:1],6-2[8:1],,
{4}4h[4:1],5h[4:1],6h[4:1],7b,
{8}1/8,,3/6,6/3,,,,,
{4}2/7h[4:1],6h[4:1],5h[4:1],4,
{4}6/3h[4:1],4h[4:1],5h[4:1],6,
{8}8/7h[4:1],1,2,,4/3h[4:1],5,5,,
{8}7/8h[4:1],6,5,,3/4h[4:1],2,1,,
{4}8/7,2/1,8/7,2/1,
{4}8/6,3/1,4/6,5/3,
{8}8/7h[4:1],1,2,,4/3h[4:1],5,5,,
{8}7/8h[4:1],6,5,,3/4h[4:1],2,1,,
{8}8,6,4,2h[8:3],,,,,
{8}3,5,7,1h[8:3],,,,,
{8}8,6,4,2h[8:3],,,,,
{8}3,4,5,6h[8:3],,,,,
{8}7/8,1,2,3/4h[8:3],,,8b,,
{8}6/7,5,4,3/2h[8:3],,,1b,,
{16}2/7h[16:3],,,6h[16:3],,,5,,7/2h[16:3],,,3h[16:3],,,4,,
{16}2/7h[16:3],,,8h[16:3],,,1,,1/8,,,3/6,,,5/4,,
{4}3-7[8:1],6-2[8:1],4-8[8:1],,
{4}8,8,7,7,
{4}6,6,5,5,
{4}4,1,6,3,
{4}8,5,2,7b,
{2}8h[4:3]/6-1[8:1],2^5[8:1],
{8}6h[4:1],,,6/3,,4,3,2,
{4}8/1,6/7,5/4,3/2,
{8}1/8,,7,7,,8,1,2,
{2}1h[4:3]/3-8[8:1],7^4[8:1],
{8}3h[4:1],,,3/6,,5,6,7,
{4}1/8,2/3,4/5,6/7,
{8}1/8,,2,2b,,,,,
{16}7/8,,6,,6,,,,1,2,,2h[100:19],,,1,,
{16}8,,8,,7h[4:1],,,,6,5,,5,,,5,,
{16}6,,7,,7b,,,,8,1,,1h[16:3],,,2,,
{16}3,,4,,4h[4:1],,,,3,2,,2,,,1,,
{16}1/2,,3,,3,,,,8,7,,7h[100:19],,,8,,
{16}1,,1,,2h[4:1],,,,3,4,,4,,,4,,
{16}3,,2,,2,,,,1,8,,8h[16:3],,,7,,
{16}6,,5,,5h[4:1],,,,4,,,3,,,3,,
{8}3/7h[2:1],,6,,8,1,2,3h[8:5],
{16},,,,,,,,2,,1,8,7,6,5,,
{16}2,3,4h[8:5],,,,,,,,,,5h[4:1],,,,
{8}6,7,2/8,1/3,,,,,
{8}6/2h[2:1],,3,,1,8,7,6h[8:5],
{16},,,,,,,,7,,8,1,2,3,4,,
{16}7,6,5h[8:5],,,,,,,,,,4h[4:1],,,,
{8}3,2,1/7,6/8,,,,,
{4}8/1h[4:1],7h[4:1],3h[4:1],5,
{8}5/4,3,2,1b,
E
&inote_6=(152.0){1},
{16}4,,5,,3/6,,,,2h[16:3],,,3h[16:3],,,4,,
{16},,6,,5,,4,,3/6,,,,1,8,7,6,
{8}5h[8:5],3,3,,,4,6,1h[4:3],
{8},7,7,,,8,2,5,
{16}1,2,3,,8,,,,7h[16:3],,,6h[16:3],,,5,,
{8},4,5,6,,2,1,8,
{4}7,5/6,2,3/4,
{16}1h[8:1]/8h[8:1],,,3h[8:1]/6h[8:1],,,2/7,,,,,,1b/8b,,,,
{8}6/1h[8:1],4,3/8h[8:1],5,6/1h[8:1],4,3/8h[8:1],5,
{16}7/1h[8:1],,4,,2/8,,4/6,,,,1/7,,8,1/7,2/6,3/5,
{8}4h[8:1],1,3/5h[8:1],8,6/4h[8:1],1,3/5h[8:1],8,
{8}4/6,3/7,2/8,1w5[8:1],,,,,
{8}3/8h[8:1],5,6/1h[8:1],4,3/8h[8:1],5,6/1h[8:1],4,
{16}2/8h[8:1],,5,,1/7,,3/5,,,,2/8,,1,2/8,3/7,4/6,
{8}5h[8:1],8,6/4h[8:1],1,3/5h[8:1],8,6/4h[8:1],1,
{8}3/5,2/6,1/7,8w4[8:1],,,,,
{8}2-5[16:1],1,7-4[16:1],8,2-5[16:1],1,7-4[16:1],8,
{8}2-5[16:1],1,7,8,,2,1,8,
{8}7-3[16:1],8,1-5[16:1],8,7-3[16:1],8,1,8,
{16}1h[8:1]/7h[8:1],,,3h[8:1]/5h[8:1],,,2/8,,,,2/4,,1/5,,6/8,,
{8}7-4[16:1],8,2-5[16:1],1,7-4[16:1],8,2-5[16:1],1,
{8}7-4[16:1],8,2,1,,7,8,1,
{8}2-6[16:1],1,8-4[16:1],1,2-6[16:1],1,8,1,
{16}2h[8:1]/8h[8:1],,,4h[8:1]/6h[8:1],,,3h[4:1]/7h[4:1],,,,,,1,8,1,8,
{8}2^5[16:1],1,7^4[16:1],8,2^5[16:1],1,7^4[16:1],8,
{8}2^5[16:1],1,7,8,,6h[8:1],4h[8:1],8h[8:1],
{8}2^5[16:1],1,8^5[16:1],1,2^5[16:1],1,8,1,
{16}2h[8:1]/8h[8:1],,,4h[8:1]/5h[8:1],,,1/7,,,,2/4,,1/5,,6/8,,
{8}7^4[16:1],8,2^5[16:1],1,7^4[16:1],8,2^5[16:1],1,
{8}7^4[16:1],8,2,1,,3h[8:1],5h[8:1],1h[8:1],
{8}7^4[16:1],8,1^4[16:1],8,7^4[16:1],8,1,8,
{16}1h[8:1]/7h[8:1],,,4h[8:1]/5h[8:1],,,8/2h[8:3],,,,,,7b,,,,
{8}6<2[16:5],3,1>5[4:1],1h[8:3],,,,,
{8}3>7[16:5],6,8<4[4:1],8h[8:3],,,,,
{8}7<3[16:5],2,4>8[4:1],4h[8:3],,,,,
{8}2>6[16:5],7,5<1[4:1],5h[8:3],,,,,
{8}8<3[16:5],2,4>8[4:1],4h[8:3],,,,,
{8}1>6[16:5],7,5<1[4:1],5h[8:3],,,,,
{16}5/4h[16:3],,,3h[16:3],,,2,,5h[16:3],,,6h[16:3],,,7,,
{16}3h[16:3],,,2h[16:3],,,1,,6h[16:3],,,7h[16:3],,,8,,
{4}1b-5[8:1],1b^4[8:1]*^6[8:1],1bw5[8:1],1b,
{16}8h[16:3],,,7,7h[16:3],,,6,6h[16:3],,,5,5h[16:3],,,4,
{16}4h[16:3],,,3,3h[16:3],,,2,2h[16:3],,,1,1h[16:3],,,8,
{16}8h[16:3],,,6,6h[16:3],,,4,4h[16:3],,,2,2h[16:3],,,4,
{16}4h[16:3],,,6,6h[16:3],,,8,8h[16:3],,,2,2b,,,,
{2}7^4[8:1],2^5[8:1],
{8}8pp2[8:1]*qq6[8:1],,,,,2,1,8,
{4}7,5/6,2,3/4,
{16}7h[16:3],,,6h[16:3],,,5,,,,7,,8,,1,,
{2}2^5[8:1],7^4[8:1],
{8}1pp3[8:1]*qq7[8:1],,,,,7,8,1,
{4}2,3/4,7,5/6,
{16}2h[16:3],,,3h[16:3],,,4,,,,1b/8b,,2,7,2,7,
{8}1h[4:1],8,5h[4:1],4,2h[4:1],1,6h[4:1],5,
{8}3h[4:1],2,6,6/7,,3,7-2[16:1],8,
{8}3-6[16:1],4,7-2[16:1],8,3-6[16:1],4,7,8,
{16}1h[8:1]/3h[8:1],,,4h[8:1]/5h[8:1],,,6b/8b,,,,4/5,,3/6,,2/7,,
{8}8h[4:1],1,4h[4:1],5,7h[4:1],8,3h[4:1],4,
{8}6h[4:1],7,3,2/3,,6,2-7[16:1],1,
{8}6-3[16:1],5,2-7[16:1],1,6-3[16:1],5,2,1,
{16}6h[8:1]/8h[8:1],,,4h[8:1]/5h[8:1],,,1b/3h[4:1],,,,
{983}8,,,,,,,,,,,,,,,,,,,,,,,,,,,,,,,,,,,,,,,,,
{625}7,,,,,,,,,,,,,,,,,,,,,,,,,,
{983}6,,,,,,,,,,,,,,,,,,,,,,,,,,,,,,,,,,,,,,,,,
{8}5b,,
{8}7/3-8[16:1],1,7-4[16:1],5,3-8[16:1],1,7-4[16:1],5,
{16}3-8[16:1],,1,,7,,5,,,,5,4,3,2,1,8,
{8}7/1h[8:1],4,2/8h[8:1],5,7/1h[8:1],4,2/8h[8:1],5,
{8}4/6,3/7,2/8,1w5[8:1],,,,,
{8}2/6-1[16:1],8,2-5[16:1],4,6-1[16:1],8,2-5[16:1],4,
{16}6-1[16:1],,8,,2,,4,,,,4,5,6,7,8,1,
{8}2/8h[8:1],5,7/1h[8:1],4,2/8h[8:1],5,7/1h[8:1],4,
{8}3/5,2/6,1/7,8w4[8:1],,,,,
{4}4/5,3h[4:1],1h[4:1],8h[4:1],
{8}6,8,1,3b,
E
