&title=Love or Lies
&artist=capsule [cover]
&wholebpm=128
&demo_seek=68.5
&demo_len=14.5
&lv_1=2
&lv_2=5
&lv_3=6
&lv_4=9
&lv_5=11+
&des_4=譜面-100号
&des_5=ニャイン
&inote_1=(128.0){1},,,
{1}2,
{1}2,
{1}3,
{1}4,
{1}5,
{1}6,
{2}7,6,
{1}5,
{2}4,3,
{1}2h[2:1],
{2}1,8,
{1}7,
{2}8,1,
{1}2,
{2}1,8,
{1}7,
{2}8,1,
{1}2,
{1}2b,
{1}1,
{1}8,
{1}7,
{1}7-3[2:1],,
{1}2-6[2:1],,
{1}7,
{1}8,
{1}1,
{1}2,
{1}2-6[2:1],,
{1}7-3[2:1],,
{2}2,2,
{2}1,8,
{2}7,7,
{2}8,1,
{2}1,8/1,
{2}8,8/1,
{2}2,3,
{2}4,5,
{2}6,6,
{2}5,4,
{2}3,3,
{2}2,1b,
{1}8h[2:1],
{1}8h[2:1],
{1}8h[2:1],
{4}7-3[2:1],,,,
E
&inote_2=(128.0){1},3,
{1}3,
{1}3,
{1}3,
{2}1,2,
{2}3,4,
{2}5,6,
{2}7,8,
{4}1,1,1,,
{4}8,8,8,,
{4}1,1,1,,
{1}4-7[2:1],
{4},8,8,8,
{4}7,6,5,,
{4},3,3,3,
{4}4,5,6,,
{4},8,8,8,
{4}1,2,3,,
{2}1,8,
{1}8b,
{1}2-5[2:1],,
{1}4-7[2:1],,
{1}8/7,
{1}1/2,
{2}3,4,
{2}6,5,
{1}7h[2:1],
{1}5h[2:1],
{1}3h[2:1],
{1}1-4[2:1],,
{1}5h[1389:1043],
{4},6,7,8,
{4}1,,,1b,
{4},7,8,2,
{4},2,1,7,
{4},7,8,2,
{4},3,4,6,
{4},6,5,3,
{4},3,4,6,
{4},7-2[2:1],,,{1},
{4},2,8,7,
{4},7,1,2,
{4},2,8,7,
{4},6,4,3,
{4},2h[2:1],,,
{4},2h[2:1],,,
{4},7,6,6,
{1}6b,
E
&inote_3=(128.0){1},6,
{1}6,
{1}6,
{1}6,
{4}1,1,2,2,
{4}3,3,4,4,
{4}5,5,6,6,
{4}7,7,8,8,
{4}1,8/1,8,8/7,
{4}7,7/6,6,6/5,
{4}5,5/4,4,4/3,
{1}2-7[2:1],
{4},8,7,6,
{4}5,4,3,2,
{4},1,2,3,
{4}4,5,6,6b,
{4},8,7,6,
{4}5,6,7,7,
{1}2^7[2:1],,
{1}3-8[2:1],
{1}6-1[2:1],
{1}3^8[2:1],
{1}6^1[2:1],
{4}7h[4:3],6,,6,
{4}3h[4:3],2,,2,
{4}7h[4:3],8,,8,
{4}2h[4:3],1,,1,
{4}3/6,5,4,3,
{4}4,5,6,7,
{4}2/7,1,8,7,
{4}8,1,2,3,
{714},
{893}6h[1607:1203],,,,,,,,,,,,,,,,,,,,,,,,,,,,,,,,,,,,,,,,,,,,,,,,,,,,,,,,,,,,,,,,,,,,,,,,,,,,,,,,,,,,,,,,,,,,,,,,,,,,,,,,,,,,,,,,,,,,,,,,,,,,,,,,,,,,,,,,,,,,,,,,,,,,,,,,,,,,,,,,,,,,,,,,,,,,,,,,,,,,,,,,,,,,,,,,,,,,,,,,,,,,,,,,,,,,,,,,,,,,,,
{4}5,4,
{835}3,,,,,,,,,,,,,,,,,,,,,,,,,,,,,,,,,,,,,,,,,,,,,,,,,,,,,,,,,,,,,,,,,,,,,,,,,,,,,,,,,,,,,,,,,,,,,,,,,,,,,,,,,,,,,,,,,,,,,,,,,,,,,,,,,,,,,,,,,,,,,,,,,,,,,,,,,,,,,,,,,,,,,,,,,,,,,,,,,,,,,,,,,,,,,,,,,,,,,,,,,,,,,,,,
{1000}2h[1389:1043],
{4},3,4,5,
{4}1,3,7,6,
{16}2/7,,,7/2,,,7b/2b,,,,,,1/8,,,,
{4}8,1/8,2,3,
{4}2,1/8,7,6,
{4}7,8/1,2,3,
{4}4,4/5,5,6,
{4}5,4,3,3b,
{4}4,5,6,6b,
{4}5,4,3,3b,
{4}2,7,8,8/1,
{4}1,1/8,7,6,
{4}7,1/8,2,3,
{4}2,8/1,7,6,
{4}5,5/4,4,3,
{4},5b/6b,2-5[4:1],,
{4},3b/4b,7-4[4:1],,
{4},7,6,7-2[2:1],,,,
E
&inote_4=(128.0){1},
{16}3,,3,,3,,,4,,,,,,,,,
{16}6,,6,,6,,,5,,,,,,,,,
{16}3,,3,,3,,,4,,,,,5,,5,,
{16}6,,6,,6,,,5,,,,,4,,4,,
{16}3,,4,,3,,,3,,,4,,5,,4,,
{16}6,,5,,6,,,6,,,5,,4,,5,,
{16}3,,4,,3,,4,3,,,4,,5,,4,,
{16}6,,5,,6,,5,6,,,5,,4,,5,,
{16}3,,3,5,,5,,,2,,2,4,,4,,,
{16}1,,1,3,,3,,,8,,8,2,,2,,,
{16}7,,7,1,,1,,,6,,6,8,,8,,,
{16}5,,,5,,,5-8[8:1],,,,,,,,,,
{8}1h[4:1],,2h[4:1],,3h[4:1],,4,8,
{8}4h[4:1],,5h[4:1],,6h[4:1],,7,3,
{8}8h[4:1],,7h[4:1],,6h[4:1],,5,1,
{8}5h[4:1],,4h[4:1],,3h[4:1],,2,6,
{8}2h[4:3],,3,,4,,5,1,
{8}5h[4:3],,4,,3,,2,6,
{8}7h[4:3],,6,,5,,4,8,
{16}3,,,3,,,3,,,3,,,3,,2,,
{8}1h[4:3],,,,,,7,6,
{8}5h[4:3],,,,,,4,3,
{4}2h[4:1],1h[4:1],8h[4:1],7h[4:1],
{8}6^3[4:1],,,,,,2,3,
{8}4h[4:3],,,,,,7,6,
{8}5h[4:3],,,,,,7,8,
{4}1h[4:1],7h[4:1],3h[4:1],5h[4:1],
{1}4h[2:1],
{16}8h[4:3],,,,6,,,6,,,,,,,,,
{16}4h[4:3],,,,2,,,2,,,,,,,,,
{4}1,2,3-6[4:1],,
{4}7-2[4:1],,,7h[1:1],
{4}6^3[4:1],,,2h[1:1],
{4}3^6[4:1],,,7h[2:1],
{4}8,3h[2:1],4,6h[8:5],
{16}5,,,5,,,5b,,,,7,,
{652}8,,,,,,,,,,,,,,,,,,,,,,,,,,,,,,,,,,,,,,,,,,,,,,,,,,,,,,,,,,,,,,,,,,,,,,,,,,,,,,,,,,,1h[1603:898],,,,,,,,,,,,,,,,,,,,,,,,,,,,,,,,,,,,,,,,,,,,,,,,,,,,,,,,,,,,,,,,,,,,,,,,,,,,,,,,
{16},,,,2,,,2,,,2,,1,,8h[16:9],,
{16},,,,7,,,7,,,7,,6,,5h[16:9],,
{16},,,,3,,,3,,,2,,3,,4h[16:9],,
{16},,,,5,,,5,,,6,,5,,6h[16:9],,
{16},,,,4,,,4,,,3,,4,,3h[16:9],,
{16},,,,5,,,5,,,4,,5,,6h[16:9],,
{16},,,,4,,,4,,,5,,4,,3h[16:9],,
{16},,,,2,,,2,,,7,,8,,1,,
{16}2,,,,1,,,1/2,,,2,,1,,8,,
{16}7,,,,8,,,7/8,,,8,,7,,6,,
{16}5,,,,6,,,6/5,,,1,,2,,3,,
{16}4,,,,3,,,3/4,,,6,,5,,4,,
{16}3,,,,5,,,4b/5b,,,6,,5,,4,,
{16}3,,,,5,,,4b/5b,,,6,,5,,4,,
{16}3,,,,5,,,5b/4b,,,6,,5,,4,,
{1}3,
E
&inote_5=(128.0){1},
{16}3,,3,,3,,,8,,1,8,,2,,,,
{16}2,,2,,2,,,8,,1,8,,3,,,,
{16}6,,6,,6,,,1,,8,1,,7,,,,
{16}7,,7,,7,,,1,,8,1,,6,,,,
{16}3,,1,,2/1,,,1,,7,1,,8/1,,,,
{16}6,,8,,8/7,,,8,,2,8,,8/1,,,,
{16}3,,2,,5/4,,,2,,4,2,,6/3,,,,
{16}6,,7,,5/4,,,7,,5,7,,6/3,,,,
{16}1,,1,2,,2,1b,,4,,4,5,,5,4b,,
{16}2,,2,3,,3,2b,,7,,7,6,,6,7b,,
{16}5,,5,6,,6,5b,,4,,4,3,,3,4b,,
{16}8,,,7/1,,,6/8,,,,,8,1b,,,,
{4}1h[4:1],5h[4:1],3h[2:1],2,
{16}7h[4:1],,,,8h[4:1],,,,2,,,8,,7/2,,,
{4}5h[4:1],1h[4:1],7h[1667:833],6,
{16}3h[4:1],,,,2h[4:1],,3,,4,,8,7,,1/8,,,
{4}8h[4:1],4h[4:1],6h[2:1],7,
{16}2h[4:1],,,,1h[4:1],,,,7,,,1,,7/2,,,
{16}6,,,,7,,8/1,,7,6,,7,,,1,,
{16}6/2,,4,8b,,5,1b,,,,,,4-8[2:1],,,,
{16},,,,1,,,1,,,,,2-6[2:1],,,,
{16},,,,7,,,7,,,,,6h[4:1],,,,
{4}5h[2:1],4,3^8[8:1],5^8[2:1],
{8},,,,,,3,2,
{8}1h[2:1]/5^2[2:1],,,,,,8,7,
{4}6h[2:1]/2^7[2:1],,,5,
{4}2h[4:1]/8h[2:1],,1h[4:1],7h[4:3],
{4}3h[2:1],,,7-2[4:3],
{4},,,8-5[4:3],
{4},,,2-5[4:1],
{4},4-7[4:1],,8^3[2:1],
{8},,,,,,6,6,
{16}4h[1:1],,,,3,,,3,,,,,5,,6,,
{16}7h[4:3],,,,8,,,8,,,,,1,,,,
{8}2h[2:1],,3,4,8h[8:3],,1,1,
{16}2/3,,,5/4,,,7/6,,,,8/2,,1/3h[4:1],,2,,
{16}1,,8,,7/1,,,2/8,,,7/1,,8/6h[4:1],,7,,
{16}8,,1,,2/8,,,1/7,,,3/4,,5/4h[4:1],,6,,
{16}7,,6,,5/7,,,6/4,,,5/6,,4/5h[4:1],,3,,
{16}2,,3,,4/2,,,3/5,,,8,,7-3[4:1],,6,,
{16}2,,1,,2,,,3,,,1,,2-6[4:1],,3,,
{16}7,,8,,7,,,6,,,8,,1-4[8:1],,1,,
{8}6-3[8:1],,,,,4,5-8[8:1],5,
{8}2-7[8:1],,,,,2b/8,1b/3h[4:1],2b,
{16}1,,8,,1/7,,2,8,,7,1,,8/6h[4:1],,7b,,
{16}8,,1,,2/8,,7,1,,3,4,,5/4h[4:1],,6b,,
{16}7,,6,,7/5,,4,6,,6,5,,4/5h[4:1],,3b,,
{16}2,,3,,4/2,,5,3,,,2/1^6[10000:3749],,3,,,,
{8}5h[2:1],,,,,6/5^2[10000:3749],7,,
{8}1h[2:1],,,,,1/8-4[10000:3749],2,,
{1}6-2[2:1],
{16}2,1,,5,6,,2,1,,8,7,,8/1,
E
