&title=Crush On You
&artist=福山光晴「Crackin’DJ」
&first=0
&des=
&wholebpm=125
&demo_seek=19
&demo_len=14
&des_4=譜面-100号
&des_5=ニャイン
&des_6=Jack
&lv_1=2
&lv_2=4
&lv_3=7+
&lv_4=9
&lv_5=11
&lv_6=13+
&inote_1=(125.0){1},,
{1}2,
{2}1,1,
{1}7,
{2}8,8,
{2}7,7,
{2}8,8,
{2}1,1,
{4}2,2,2,,
{4},1,,8,
{4},7,,8,
{4},1,,2,
{4},1,,,
{4},1,,8,
{4},7,,8,
{4},1,,2,
{4},1,,1,
{4},8,,1,
{4},1-4[2:1],,,{1},
{4},2,,2,
{4},8,,8,
{4},8-5[2:1],,,{1},
{4}2,2,,1,
{4},8,,8,
{1}7h[8:3],
{4},1,,1,
{1}2h[8:3],
{4},1,,1,{1},
{4},8,,8,
{4},8-5[2:1],,,{1},
{4},6,,7,
{4},8,,1,
{4},8,,8,
{4},8,,8,
{4},7,,8b,
{4},7,,8,
{4},1,,,
{1}8h[2:1],
{4}7,7,6,6b,{1},
{4},1/8,,,
{2}1,8,
{1}1/8,
{2}7/2,2/7,
{2}8,2/7,
{2}8,2/7,
{2}8,8/1,
{2}1,1/8,
E
&inote_2=(125.0){1},,
{1}7,
{2}8,1,
{1}2,
{2}1,8,
{4}7,7,7,7,
{2}8,8,
{8}1,,,1,1,,,,
{4}2,2,2h[4:1],,
{4},8,,8,
{4},7,,7,
{4},1,,1,
{4},2,2h[4:1],,
{4},1,,1,
{4},2,,2,
{4},8,,8,
{4}7,7,7h[4:1],,
{2}1,1,
{1}1-4[2:1],
{4},8,,8,
{4}7,7,,2,
{4},8,,8,
{1}8-5[2:1],
{4},1,,1,
{8}2,,2,,,7,7,,
{4},6,,6,
{4}5h[8:3],,,4,
{4},3,,3,
{4}4h[8:3],,,5,
{8}6,,,3,,,6,6,
{4},,,2,
{4},2,,2,
{1}8-5[500:251],,
{4}7,7,7,7,
{4}2,2,2,2,
{4}7,7,7,8,
{1}1h[2:1],
{8}8,,,1,,,8,,
{4}7,7,7,7,
{4}2,2,2,1,
{1}8h[2:1],
{4}6,5,4,3,{1},
{4},8b,,,
{2}1,8,
{1}1/8,
{2}8/1,2/7,
{2}1/8,2/7,
{2}1/8,2/7,
{8}8/1,,,1/8,1/8,,,,
{4}2,2,2h[4:1],,
E
&inote_3=(125.0){1},,
{1}1h[4:3],
{4}8,7,7,8,
{1}1h[4:3],
{2}8h[4:1],1h[4:1],
{4}8h[1:1],2,2,2,
{4},4,4,3,
{8}1h[4:1],,,1,8h[4:1],,,8,
{8}1,,1,,1,8,2,,
{4},3,4,3,
{4}2,2,4,5,
{4},6,5,6,
{8}7,,7,,5,4b,,,
{4},7,8,7,
{4}3,3,4,5,
{4},2,1,2,
{8}6,,6,,7,7,2,,
{4},4,,4,
{4},2,3,2,
{4},5,,5,
{8}7,,7,,,8,6h[4:1],,
{4},5,,5,
{4},7,6,7,
{4},4,,4,
{8}2,,2,,,1,3h[4:1],,
{4},3,,3,
{16}8,,,1,,,8h[8:3],,,,,,,,,,
{4},6,,6,
{16}1,,,8,,,1h[8:3],,,,,,,,,,
{16}2h[4:1],,,,,,8h[4:1],,,,,,2,,
{313}2,,,,,,,,,,,,,,,,,,,,,,,,,,,,,,,,,,,,,,,
{4}2h[1251:626]
,,,
{4}7,
{4},7,,7,
{16}3,,3,,,6,,,3,,,6,,,3,,
{1}8h[4:3],
{4}3/5,6/4,5/3,,
{4}6/4,5/3,6/4,,
{4}3/5,6/4,5/3,4-8[2:1],{1},
{8}1h[4:1],,,6h[4:1],,,2,,
{4}5/3,6/4,5/3,,
{4}6/4,5/3,6/4,5-1[2:1],
{16},,,,,,,,,,8,,,8,,,
{4}2,3,4,5,{1},
{8}1,1,1h[4:3],,,,,,
{4},6,6,7,
{1}8h[1:1],
{1}1h[2:1],
{4}8h[4:1],2,1h[4:1],7,
{4}8h[4:1],2,1h[4:1],7,
{8}8h[4:1],,,8,1h[4:1],,,1,
&inote_4=(125.0){1},,
{1}1h[4:7],
{4}8,2,2,8,
{1}1h[1:1],
{2}8h[2:1],2h[4:1],
{4}2/8h[4:7],2,2,2,
{4}1,7,7,1,
{8}2h[4:1],,,2,7h[4:1],,,7,
{16}1,,,,1,,,,8,8,,2b,,,,,
{4}3,3/8,2,2/8,
{4}3,3/7,4,4/7,
{4}6,1/6,7,1/7,
{8}6,,2/6,,5,6/4b,,,
{4}6,1/6,7,1/7,
{4}6,2/6,5,2/5,
{4}3,3/8,2,2/8,
{8}3,,3/7,,4,4,4/5,,
{4},1,3,1,
{4}7,8/7,2,2/1,
{4},8,6,8,
{8}2,,7/2,,,6/1,7/2,,
{4},7,5,7,
{4}3,3/4,6,6/5,
{4},2,4,2,
{8}6,,6/3,,,4/7,
{4}2/5-2[4:3],{1},
{16}4/7,,,5/1,,,3/8b,,,,,,
{4}4-7[4:3],{1},
{16}1/6,,,7/3,,,2/5h[8:3],,,,,,,,,,
{16}1h[8:1],,,1,,,8h[8:1],,,8,,,2b,,7b,,
{4},,,2,
{4},2,,2h[4:7],
{16}1,,8,,,7,,,6,,,5,,,4,,
{1}3,
{4}4/5h[1:1],6,4,6,
{4}4h[1:1],3,5,3,
{8}5h[2:1],,6,,4,,4,5,
{8}6,7,8,1,,,,,
{8}2h[4:1]/4h[4:1],,,5h[4:1]/7h[4:1],,,6/3,,
{4}4/5h[1:1],6,4,6,
{8}4h[2:1],,3,,5,,5,4,
{16}3,,2,,1,,8,,,,2,,,2,,,
{4}2h[4:1],8h[4:1],6h[4:1],4h[4:1],{1},
{16}8,1,8,1,8h[2:3],,,,,,,,,,,,
{4}1,7,7,1,
{1}8h[1:1],
{2}2h[2:1],7h[4:1],
{4}8/1h[4:1],2,1/8h[4:1],7,
{4}8/1h[4:1],2,1/8h[4:1],7,
{16}1h[4:1],,,,,8,2,,8h[4:1],,,,,1,7,,
{16}8,,,,8,,,,1,1,,7,
E
&inote_5=(125.0){1},,
{4}1h[4:3],6,,6,
{4}2h[4:1],3,7h[4:1],6,
{4}1h[4:3],6,,6,
{4}8,4/3-8[4:1],,2b,
{4}1h[4:3],5,5,5,
{4}3h[4:1],7,6h[4:1],2,
{8}7/1h[4:1],,8,7,2/8h[4:1],,1,2,
{8}8,7,1-5[4:1],2,4-8[4:1],,,,
{8},1,2,3,4,5,6,7h[1:1],
{8},8,,1,,2,,3,
{8},8,7,6,5,4,3,2h[8:5],
{8},1,,1-5[8:1],,3-7[8:1],,,
{8},1,2,3,4,5,6,7h[1:1],
{8},8,,1,,2,,3,
{8},8,7,6,5,4,3,2,
{8}5,5,1,1,7,7,3h[4:1],,
{4}7,5,1,3,
{16}8,,7,8,,,1h[4:1],,,,,,2,,3,,
{8}1,8,7,6,5h[4:1],,1,2,
{8}8/1,,6/2,,,8/4,2/6,,
{4}2,4,8,6,
{16}1,,2,1,,,8h[4:1],,,,,,7,,6,,
{8}8,1,2,3,4h[4:1],,8,7,
{8}8/1,,7/3,,,5/1,7b/3b,,
{16}8,8,,7,,6,,7h[16:5],,,,,,,,,
{16}4,7,,3,8,,2-5[4:1],1-6[4:1],,,,,,,,,
{16}1,1,,2,,3,,2h[16:5],,,1,,,,,,
{16}5,2,,1/6,,,7-4[4:1]/8-3[4:1],,,,,,,,,,
{16}1,1,,2b,,,8,8,,7b,,,1,8,1,8b,
{4},,,2,
{4},2,,2h[4:1],
{16}3h[8:1],,4h[16:3],,,5h[16:3],,,6h[16:3],,,7h[16:3],,,8h[8:1],,
{1}1h[4:3],
{2}7^4[8:1],2^5[8:1],
{2}5^2[8:1],4^7[8:1],
{4}6^3[8:1],,2-5[8:1],6-1[8:1],
{4}8-3[8:1],4-7[8:1],1-4[8:1],,
{8}7/6,,1,2/3,,2,8/1,,
{2}4^7[8:1],5^2[8:1],
{4}2-7[8:1],6-3[8:1],,4-1[2:1]/5-8[2:1],
{16},,,,,,,,,,4/6,,,5/3,,,
{4}6/5,7/8,2/1,2-7[4:3]/3-6[4:3],{1},
{16}5,6,7,8,1h[2:3],,,,,,,,,,,,
{2}8-3[10000:1273],4-7[8:1],
{4}1h[4:3],7,,8-5[8:1],
{4}7-2[8:1],3-6[8:1],4-1[8:1],,
{2}8-3[2:1],1-6[2:1],
{2}7-4[2:1],2-5[2:1],
{16}8h[4:1],,,,,8,8,,1h[4:1],,,,,1,1,,
{8}8,7,6^1[8:1],5,2^5[8:1],,,,
E
&inote_6=(125.0){1},
{4}1-3[16:1]/5-7[16:1],1v4[8:1]/5v8[8:1],,2^7[16:11]/6^3[16:11],
{4}2/6,,,1-3[8:1]/8-4[8:1],
{4}1-5[8:1]/8-6[8:1],1-4[8:1]/8-3[8:1],1-6[8:1]/8-5[8:1],1/8,
{4}3>6[8:5],3/6,,3>6[8:1],
{2},1-4[8:1]/8-5[8:1],
{4}3/6<3[2:1],4,5,6,
{8}7-3[8:1],,7/8-4[8:1],,8/1-5[8:1],,1/2-6[8:1],2,
{16}2h[4:1],,,,7-3[8:1],,8,8,7h[4:1],,,,4^7[8:1],,,,
{4}4/8^3[8:1],8/5^8[8:1],5/1>8[4:1],,
{8}5h[8:1],1h[1:0],2h[1:0]/5h[8:1],3h[1:0],4h[1:0]/5h[8:1],6h[1:0],7h[1:0]/5h[8:1],8h[1:0],
{16}5h[1:0]/1h[8:1],,5h[1:0],,2h[8:1],6h[1:0],,6h[1:0],3h[8:1],,7h[1:0],,4h[8:1],8h[1:0],,8h[1:0],
{8}4h[8:1],8h[1:0],7h[1:0]/4h[8:1],6h[1:0],5h[1:0]/4h[8:1],3h[1:0],2h[1:0]/4h[8:1],1h[1:0],
{16}4h[1:0]/8h[8:1],,3h[1:0],,7h[8:1],2h[1:0],,2h[1:0],6h[8:1],,1^4[16:1],,5^8[16:1],,1b,,
{8}5h[1:0],4h[1:0],3h[1:0]/8h[8:1],2h[1:0],1h[1:0]/8h[8:1],7h[1:0],6h[1:0]/8h[8:1],5h[1:0],
{16}8h[1:0]/4h[8:1],,8h[1:0],,4h[8:1],7h[1:0],,7h[1:0],3h[8:1],,6h[1:0],,2h[8:1],5h[1:0],,5h[1:0],
{8}1h[8:1],5h[1:0],6h[1:0]/1h[8:1],7h[1:0],8h[1:0]/1h[8:1],2h[1:0],3h[1:0]/1h[8:1],4h[1:0],
{8}1h[1:0]/5^8[8:1],6h[1:0],5h[1:0]/1^4[8:1],2h[1:0],1h[1:0]/5-1[8:1],6h[1:0],,,
{16}2h[8:3],,3,,4,,5,2,5,2,,3,4,,6,5,
{16}4/7,,6,5,,3,4,2,,2,,5,4,,8,1,
{16}7h[8:3],,6,,5,,4,7,4,7,,6,5,,1/8-4[16:1],,
{8}3/7,8/1-5[16:1],2/6,1/8,,7/8,1/2,,
{16}7h[8:3],,6,,5,,4,7,4,7,,6,5,,3,4,
{16}2/5,,3,4,,6,5,7,,7,,4,5,,1,8,
{16}2h[8:3],,3,,4,,5,2,5,2,,3,4,,8/1-5[16:1],,
{8}2/6,1/8-4[16:1],3/7,1/8,,1/2,7/8^3[16:15],,
{8}4/8,,5h[16:3],,5,6,7,,
{16}4/8,1/5,,1/5,4/8,,4/8,1/5,,,,,2/1^6[16:15],,,,
{8}1/5,,4h[16:3],,4,3,2,,
{16}1/5,4/8,,4h[8:1]/8h[8:1],,,4q2[4:1]/8q6[4:1],,,,,,,,,,
{8}1-5[16:1],,1,1-5[16:1],,1,1-5[8:1],5pp1[8:3]*qq1[8:3],
{8},,,,,2/8,3/7,4/6,
{16}3/5,,2/6,,1/7,,8,1,8,1,2/7,,3/4,,5/6,,
{16}1,5,1,5,5,1,5,5,1,5,5,1,5,5,1,5,
{1}1b,
{16}8/1-4[16:1],,,,8/1-6[16:1],,,7,1^4[16:1],7,,,6/1-5[16:1],,7,,
{16}8/1-4[16:1],,,,8/1-6[16:1],,,7,1^4[16:1],7,,,6/1-5[16:1],,7,,
{16}8/1-4[16:1],,,,8/1-6[16:1],,,7,1^4[16:1],,5,,6/1-5[16:1],,7,,
{16}8/1-4[16:1],,8,8,1-6[16:1],8,8,,1>7[16:3],,8,,1/8,,,,
{8}1bw5[16:1],,1,2/8bw4[16:1],,8,1b/7,,
{16}1/8-5[16:1],,,,1/8-3[16:1],,,2,8^5[16:1],2,,,3/8-4[16:1],,2,,
{16}1/8-5[16:1],,,,1/8-3[16:1],,,2,8^5[16:1],,4,,3/8-4[16:1],,2,,
{16}1/8-5[16:1],,1,1,8-3[16:1],1,1,,8,,1bw5[16:1],,,1b,,,
{8}2^5[8:1]/8^5[8:1],,2/8,,5,4/6,3/7,2/8,
{1}1,
{16}1b>1[2:1]/8b<8[2:1],2b>2[2:1]/7b<7[2:1],3b<3[2:1]/6b>6[2:1],4b<4[2:1]/5b>5[2:1],,,,,,,,,,,,,
{4}1-3[8:1]/8-4[8:1],1-5[8:1]/8-6[8:1],1-3[8:1]/8-4[8:1],1/8,
{4}6<3[8:5],3/6,,6<3[8:1],
{4},,4-1[8:1]/8-5[8:1],4>5[16:7],
{4},,1v7[8:1]/5v3[8:1],5<4[16:7],
{4},,4v7[8:1]/8v1[8:1],8w4[8:1],
{16}8,,,,1-5[8:1]/8-4[8:1],3/6,3/6,,1/8,,,,4-8[16:1]/5-1[16:1],2/7,2/7,,
{4}4-2[16:1]/5-7[16:1],4-8[8:1]/5-1[8:3],4/5,
{8}8b,,
E
