&title=Color My World
&artist=GOSH/クラシック「悲愴」
&wholebpm=94
&demo_seek=28
&demo_len=19
&lv_1=2
&lv_2=4
&lv_3=7
&lv_4=9+
&lv_5=12
&des_4=譜面-100号
&des_5=ニャイン
&inote_1=(94.0){1},,,
{4},3,,3,
{4},2,,2,
{4}1,8,7,6,
{1}6-3[2:1],,
{4},8,,7,
{4},8,,7,
{1}7h[2:1],
{4},6,,6,
{4},5,,5,
{4}4,3,2,1,
{1}1-4[2:1],,
{4},1,,2,
{4},1,,2,
{1}2h[2:1],
{4},2,,3/4,
{4},4,,5/6,
{4},7,,1/8,
{4},2,,1b,
{4},8,,1/2,
{4},1,,7/8,
{4},6,,4/5,
{4},5b,,4,
{4},3,,3,
{4},2,,2,
{4}1,8,7,6,
{1}6-3[2:1],,
{4},4,,5,
{4},6,,7,
{1}7-2[2:1],,
{4}3-6[2:1],,,,
E
&inote_2=(94.0){1},,,
{4}2,3,4,5,
{1}6h[4:3],
{1}7-2[4:1],
{1}3-6[4:1],
{4}7,6,5,,
{4}2,3,4,,
{1}5-8[4:1],
{1}1-4[4:1],
{8}5,5,,,5,5,,,
{8}4,4,,,4,4,,,
{1}6-1[4:1],
{1}2-5[4:1],
{8}3,3,,,3,3,,,
{8}6,6,,,6,6,,,
{1}4-7[4:1],
{1}8-3[4:1],
{4}2,2-6[4:1],,,
{4}7,7-3[4:1],,,
{4}1,1-5[4:1],,,
{4}4,4,5,5,
{4}8,8-4[4:1],,,
{4}1,1-5[4:1],,,
{4}6,7,8,1,
{2}2-5[4:1],7-4[4:1],
{4},3,,3,
{4},6,,6,
{4}1,1,1-6[4:1],,
{4}8,8,8-3[4:1],,
{4},2,,2,
{4},7,,7,
{6}1b,,,1,8,7,
{1}6-3[4:1],
{1}4-1[4:1],
{1}8b,
E
&inote_3=(94.0){1},,
{4},4,,4,
{4}5,5h[4:1],4,4h[4:1],
{4}6,6h[4:1],3,3h[4:1],
{4}2h[4:1],1h[4:1],8h[4:1],7h[4:1],
{1}6-3[4:1],
{4}6,2h[2:1],4h[4:1],,
{4}3,7h[2:1],5h[4:1],,
{8}2,,,,2,3,4,5,
{1}6^1[4:1],
{8}4,4,3,,5,5,6,,
{8}4,4,3,,5,5,6,,
{4}7h[4:1],8h[4:1],1h[4:1],2h[4:1],
{1}3-6[4:1],
{8}8,8,7,,1,1,2,,
{8}6,6,5,,3,3,4,,
{8}7,,,,7,6,5,4,
{1}3-8[4:1],
{16}1,,,,1/7,,,2h[16:5]/8h[16:5],,,,,,,,,
{16}8,,,,8/2,,,7h[16:5]/1h[16:5],,,,,,,,,
{16}3,,,,5/3,,,4h[16:5]/6h[16:5],,,,,,,,,
{8}5,6,5,,4,3,4,,
{16}6,,,,4/6,,,3h[16:5]/5h[16:5],,,,,,,,,
{16}3,,,,3/7,,,2h[16:5]/6h[16:5],,,,,,,,,
{8}8,,1,,3,4,5,6,
{8}7,,7,8,1,2,3,,
{4}5b,5h[4:1],3,3h[4:1],
{4}4,4h[4:1],6,6h[4:1],
{4}7h[4:1],8h[4:1],1h[4:1],2h[4:1],
{1}3-6[4:1],
{4}3,7h[2:1],5h[4:1],,
{4}6,2h[2:1],4h[4:1],,
{6}2,,,4b/3b,5b/4b,5b/6b,
{1}7^2[4:1],
{1}3^6[4:1],
{2}7-3[4:1],
{8}6h[8:11],,,{1},,
E
&inote_4=(94.0){1},,,
{2}1-6[4:1],2-5[4:1],
{2}8-3[4:1],7-4[4:1],
{8}3,,2,,1-4[4:3],8-5[4:3],,,{1},
{16},,7,,,7,,,6-3[4:1],,,,,,1,1,
{16},,2,,,2,,,3-6[4:1],,,,,,,,
{8},1h[8:11],,,6^3[4:1],,,,
{4},3^6[4:1],,,
{8}2-6[4:1],2,,,1-5[4:1],1,,,
{8}8-4[4:1],8,,,7-3[4:1],7,,,
{8}6,,7,,8-5[4:3],1-4[4:3],,,{1},
{8}7-3[4:1],7,,,8-4[4:1],8,,,
{8}1-5[4:1],1,,,2-6[4:1],2,,,
{16},,8h[8:3],,,,,,7,,6,,5,4,,3,
{8}4h[4:3],,,5h[8:3],,,,,
{16}7/1,,8,,1/7,,2,8/2b,,,,,,,,,
{16}8/2,,1,,8/2,,7,7b/1,,,,,,,,,
{16}3/6,,5,,6/3,,4,5/4b,,,,,,,,,
{16},,3/6,,,,3/6,,,,5/4,,,4/5,,,
{16}4/7,,6,,7/4,,8,8b/7,,,,,,,,,
{16}2/5,,3,,2/5,,1,1b/2,,,,,,,,,
{4}5,4-7[4:1],3-8[4:1],,
{4}4,5-2[4:1],6-1[4:1],,
{4},5,,5,
{4},5,,,
{8}1-6[4:1],1,,,5-2[4:1],5,,,
{8}8-3[4:1],8,,,4-7[4:1],4,,,
{4},4,,4,
{4},4,,,
{24},,,8h[8:7],,,,,,,,,2b,,,,6b,,,,3b,,,,
{1}5-8[2:1],
{1}1^4[4:3]/8^5[4:3],,
E
&inote_5=(94.0){1},
{8},,1,2,2,3,4^1[4:1],5,
{4},8^5[4:1],,,
{8}1-5[4:1],1,,,7-3[4:1],7,,,
{8}5-2[4:1],5,,,1,1,8-5[8:1],,
{8}4-1[8:1],,,,7-4[2:1],8-3[2:1],,,
{8},,,,,8h[4:1],,,
{8}4,4,,,3^6[4:1],3,,,
{8}1,1,,,7^2[4:1],7,,,
{8}3-7[8:1],4h[2:1],,,8-4[8:1],1h[8:3],,,
{4}8-4[8:1],1-5[8:1],2-6[8:1],,
{8}8-5[4:1],8,,,2-7[4:1],2,,,
{8}4-1[4:1],4,,,6-3[8:1],6,,,
{8}7/3,,5/1,,6/8-3[2:1],1/7-4[2:1],,,
{8},,,,,8h[4:1],,,
{8}4,4,,,3^6[4:1],3,,,
{8}1,1,,,7^2[4:1],7,,,
{8}3-7[8:1],4h[2:1],,,8-4[8:1],1h[8:3],,,
{8}8-4[8:1],8,1-5[8:1],,2-6[8:1],,,,
{16}3/5^2[16:1],,4/6,,,,8,1/8,,,,,,,,,
{16}7/1^6[16:1],,2/8,,,,4,5/4,,,,,,,,,
{16}3/5^2[16:1],,6/4,,,,8,8/1,,,,,2-5[8:1],,,,
{8}4-7[8:1],4b,6-1[8:1],6b,8-3[8:1],8b,,1,
{16}6/4^7[16:1],,3/5,,,,1,1/8,,,,,,,,,
{16}2/8^3[16:1],,7/1,,,,5,4/5,,,,,,,,,
{16}6/4^7[16:1],,5/3,,,,1,1/8,,,7,,6,,1,2h[16:5],
{16},,1,,8,7,,6/5,,,4/3,,2,2,,8,
{8}8-5[4:1],8,,,2-7[4:1],2,,,
{8}4-1[4:1],4,,,6-3[8:1],6,,,
{8}3/7,,5/1,,6/8-3[2:1],1/7-4[2:1],,,
{8},,,,,8h[4:1],,,
{8}4,4,,,3^6[4:1],3,,,
{8}1,1,,,7>4[4:1],7,,,
{24}3-7[8:1],,,4h[8:3],,,,,,,,,1h[6:1],,,,2h[6:1],,,,3h[6:1],,,,
{4}4h[4:3],,,
{1}1-5[4:3],,
E
