&title=City Escape: Act1
&artist=Cash Cash「ソニック ジェネレーションズ」
&wholebpm=130
&demo_seek=10
&demo_len=16
&lv_1=2
&lv_2=5
&lv_3=6
&lv_4=9+
&lv_5=12+
&lv_6=12+
&des_4=ニャイン
&des_5=mai-Star
&des_6=rioN
&inote_1=(130.0){1},,
{4},3,,3,
{4},2,,2,
{4},1,,1,
{4},,,1b,
{4},,,8,
{4},,,7,
{4},,,7,
{4},,,8/1,
{4},,,1,
{4},,,2,
{4},,,3,
{4},,,2/7,
{4},8,,7,
{4},8,,7,
{4},6,,5,
{4},6,,5,
{4},4,,3,
{4},4,,3,
{4},2,,1,
{4},2,,1,
{4},,,8/1,
{4},,,1/8,
{4},,,7/2,
{4},,,2/7,
{4},1,,2,
{4},1,,2,
{4},3,,2-7[2:1],{1},
{4},,,7-2[2:1],{1},,
{1}3,
{1}3,
{1}4,
{1}4,
{2}5,5,
{2}6,6,
{2}7,7,
{2}8,8b,
{4},8,,7,
{4},8,,7,
{4},6,,5,
{4},6,,5,
{4},4,,3,
{4},4,,3,
{4},2,,1,
{4},2,,,
{1}3h[2:1],
{1}4h[2:1],
{4},4,,3,
{4},2,,1,
{4},8,,,
{4},1,,,
{1}8h[2:1],
{1}7h[2:1],
{4},7,,6,
{4},5,,4,
{4},3,,3,
{4},2,,2,
{4},1,,,
{1}1b,
E
&inote_2=(130.0){1},,
{2}1,1,
{2}8,8,
{2}1,8,
{4}1,,8,1b,
{4}1,2,3,,
{4}8,7,6,,
{4}5,4,3,,
{4}2,1,8,,
{1}8h[4:3],
{1}1h[4:3],
{2}8,7,
{1}6-3[2:1],
{4}1,8,1,,
{4}2,7,2,,
{4}3,6,3,,
{4}4,5,4,,
{4}3,3,6,,
{4}2,2,7,,
{4}3,3,4,4,
{4}5,5,6,6b,
{1}7-2[2:1],
{1}3-6[2:1],
{2}1,8,
{4}1,8,1,,
{4},1,2,3,
{2}4h[4:1],5h[4:1],
{1}6h[4:1],
{1}7b,
{1}8,
{1}1,
{1}7,
{2}2,2,
{2}1,1,
{2}8,8,
{1}7h[4:3],
{2}6,5,
{2}4,3,
{2}2,1,
{4}1,2,1h[4:1],,
{4}1,2,1,,
{4}8,7,8,,
{4}6,5,4,3,
{4}4,5,6,,
{2}7,8,
{4}1,8,1,,
{4}2,2,1,1,
{4}1/8,8/1,8b/1b,,
{4}1,1,2,,
{4}2,2,3,,
{4}3,3,4,4,
{4}5,5,6,6,
{4},7,2,7,
{4}8h[4:1],,1,1,
{1}1-4[2:1],
{1}8-5[2:1],
{4}4,4,3,3,
{4}2,2,1h[4:1],,
{4},1,8,1,
{1000}8-4[625:312],,,,,,,,,,,,,,,,,,,,,,,,,,,,,,,,,,,,,,,,,,,,,,,,,,,,,,,,,,,,,,,,,,,,,,,,,,,,,,,,,,,,,,,,,,,,,,,,,,,,,,,,,,,,,,,,,,,,,,,,,,,,,,,,,,,,,,,,,,,,,,,,,,,,,,,,,,,,,,,,,,,,,,,,,,,,,,,,,,,,,,,,,,,,,,,,,,,,,,,,,,,,,,,,,,,,,,,,,,,,,,,,,,,,,,,,,,,,,,,,,,,,,,,,,,,,,,,,,,,,,,,,,,,,,,,,,,,,,,,,,,,,,,,,,,,,,,,,,,,,,,,,,,,,,,,,,,,,,,,,,,,,,,,,,,,,,,,,,,,,,,,,,,,,,,,,,,,,,,,,,,,,,,,,,,,,,,,,,,,,,,,,,,,,,,,,,,,,,,,,,,,,,,,,,,,,,,,,,,,,,,,,,,,,,,,,,,,,,,,,,,,,,,,,,,,,,,,,,,,,,,,,,,,,,,,,,,,,,,,,,,,,,,,,,,,,,,,,,,,,,,,,,,,,,,,,,,,,,,,,,,,,,,,,,,,,,,,,,,,,,,,,,,,,,,,,,,,,,,,,,,,,,,,,,,,,,,,,,,,,,,,,,,,,,,,,,,,,,,,,,,,,,,,,,,,,,,,,,,,,,,,,,,,,,,,,,,,,,,,,,,,,,,,,,,,,,,,,,,,,,,,,,,,,,,,,,,,,,,,,,,,,,,,,,,,,,,,,,,,,,,,,,,,,,,,,,,,,,,,,,,,,,,,,,,,,,,,,,,,,,,,,,,,,,,,,,,,,,,,,,,,,,,,,,,,,,,,,,,,,,,,,,,,,,,,,,,,,,,,,,,,,,,,,,,,,,,,,,,,,,,,,,,,,,,,,,,,,,,,,,,,,,,,,,,,,,,,,,,,,,,,,,,,,,,,,,,,,,,,,,,,,,,,,,,,,,,,,,,,,,,,,,,,,,,,,,,,,,,,,,,,,,,,,,,,,,,,,,,,,,,,,,,,,,,,,,,,,,,,,,,,,,,,,,,,,,,,,,,,,,,,,,,,,,,,,,,,,,,,1-5[2:1],{1},
{1}8b,
E
&inote_3=(130.0){1},,
{4}1,1,1,,
{4}8,8,8,,
{4}1,2,3,,
{4}8,7,6,7b/2b,
{4}1,8,1,8,
{4}2,7,2,7,
{4}3,6,3,6,
{4}4,5,5/4,5/4,
{4}3h[2:1],4,,3,
{4}6h[2:1],5,,6,
{4}2h[2:1],3,,2,
{4}1,,8,2/7,
{4}1b,2,3,2,
{4}1,2,1,2/1,
{4}8,7,6,7,
{4}8,7,8,7/8,
{1}2-7[4:1],
{1}6-3[4:1],
{4}1,1,8,8,
{4}1,8,1,8/1,
{16}2,,,2,,,2,,,,,,,,,,
{16}7,,,7,,,7,,,,,,,,,,
{4}8,1,7,3,
{4}6,2,5,4/5,
{4},2,3,4,
{4}5h[4:1],6,6h[4:1],7-3[4:1],
{4},,,5-2[4:1],{1},,
{1}3h[1:1],
{1}2h[4:3],
{1}1,
{1}3,
{1}5,
{1}7,
{1}6,
{1}4,
{1}2-7[2:1],
{4}8,1,8,1b/8b,
{4}1,2,3,2,
{4}8,7,6,7,
{4}6,5,4,3,
{4}3,4,5,6,
{1}8-4[4:1],
{1}1-5[4:1],
{4}4,5,4,5,
{4}3/6,2/7,2/7,1b/8b,
{16}1,,,8,,,1,,,,,,,,,,
{16}8,,,1,,,8,,,,,,,,,,
{4}2/1,2/1,7/8,7/8,
{4}2/7,2/7,1/8,1b/8b,
{4},7,8,1,
{4}2h[4:1],,7,7,
{16}4,,,5,,,4,,,,,,,,,,
{16}5,,,4,,,5,,,,,,,,,,
{4}5/6,5/6,4/3,4/3,
{4}7/8,7/8,2/1,2b/1b,
{4}3,2,1,8-5[4:1],{1},
{4}4,3,2,1-4[4:1]/8-5[4:1],,,
E
&inote_4=(130.0){1},,
{4}1/8,1/2,7/8,1/2,
{4}7/8,1/2,7/8,1/2,
{4}5/6,4/3,5/6,4/3,
{8}5/6,,4/3,,5,6,7b,,
{4}1/8,2/3,2/4,2/1,
{4}1/8,7/6,7/5,7/8,
{4}1/2,4/5,7/8,8/1,
{16}2,,,3,,,4,,7/3,,,,1/5,,,,
{4}8/7,3/4,1/2,6/5,
{4}5/4,7/2,8/7,7/6,
{4}6/3,3/4,3/6,6/5,
{16}1/8,,,2/7,,,6/3,,4/5,,,,2b,,,,
{8}8/3h[4:1],1,2,,1/6h[4:1],8,7,,
{8}3/2h[4:1],1,8,,6/7h[4:1],8,1,,
{8}3h[4:1],4,5,,6h[4:1],5,4,,
{4}4/3,5/6,2/1,8b/7b,
{4}1/2h[4:1],7,8/7h[4:1],2,
{4}8,7,6,5,
{4}6h[4:1],7h[4:1],8h[4:1],1b,
{4}1h[4:1],8h[4:1],7h[4:1],,
{16}7/1h[16:3],,,8h[16:9],,,2h[8:3],,,,,,,,,,
{16}7/3h[16:3],,,5h[16:9],,,1h[8:3],,,,,,,,,,
{2}1^6[4:1],5-1[4:1],
{2}2^5[4:1],6^1[4:1],
{4},7/8,8/1,1/2,
{2}1h[4:1]/8h[4:1],7h[4:1]/2h[4:1],
{4}6h[2:1]/3h[2:1],,,4-1[4:1]/5-8[4:1],{1},
{1}7h[4:3],
{1}6h[4:3],
{1}5h[4:3],
{4}4,3,2,1,
{4}1,2,3,4,
{4}5h[1:1],6,7,8,
{4}1h[1:1],2,3,4,
{4}5,4,3,2,
{4}1,8,7,6,
{4}7h[4:3],8,1,2,
{8}7/3h[4:1],,6,,1,1,1b,,
{4}1/2,2/8,2/1,2/8,
{4}7/8,1/7,8/7,7/1,
{8}6,6,6b,,3,3,3b,,
{4}1/8,7/6,5/4,2/3,
{4}7/8,1/7,8/7,7/1,
{4}1/2,2/8,2/1,2/8,
{4}2/6h[4:1],5h[4:1],4h[4:1],3b,
{4}7/3h[4:1],4h[4:1],5h[4:1],6b,
{16}7/1h[16:3],,,8h[16:9],,,2h[8:3],,,,,,,,,,
{16}7/3h[16:3],,,5h[16:9],,,1h[8:3],,,,,,,,,,
{2}8^3[4:1],4-8[4:1],
{2}7^4[4:1],3^8[4:1],
{4},7/8,1/6,5/2,
{4}4h[4:1]/3h[4:1],,5/2,7/8,
{16}1/8h[16:3],,,2h[16:9],,,3h[8:3],,,,,,,,,,
{16}8/1h[16:3],,,7h[16:9],,,6h[8:3],,,,,,,,,,
{4}3/6h[4:1],5,6/3h[4:1],4,
{4}1/8h[4:1],7,8/1h[4:1],2,
{4},7/8,8/1,1/2,
{2}8h[4:1]/1h[4:1],2h[4:1]/7h[4:1],
{4}3h[2:1]/6h[2:1],,,4-1[4:1]/5-8[4:1],,,
E
&inote_5=(130.0){1},,
{4}1,2,3,4,
{4}5,6,7,8,
{8}1,2,3,4,5,6,7,8,
{16}8,7,6,5,4,3,2,1,8,,1,,1b/8b,,,,
{8}1,6,8,3,4/5,4,1,8,
{8}1/8,3,5,7,8/7,2,8,1,
{8}1/2,6,
{891}7,,,,,,,,,,,,,,,,,,,,,,,,,,,,,,,,,,,,,,,,,,,,,,,,,,,,,,,,,,,,,,,,,,,,,,,,,,,,,,,,,,,,,,,,,,,,,,,,,,,,,,,,,,,,,,,,
{893}3,,,,,,,,,,,,,,,,,,,,,,,,,,,,,,,,,,,,,,,,,,,,,,,,,,,,,,,,,,,,,,,,,,,,,,,,,,,,,,,,,,,,,,,,,,,,,,,,,,,,,,,,,,,,,,,
{8}8/1,4,1-4[8:1],,
{4}8-5[8:1],2-6[8:1],7-3[8:1],,
{8}6h[2:1],5,4,5,3h[2:1],1,2,1,
{8}7h[2:1],6,5,6,2h[2:1],3,4,3,
{8}1h[4:1],8,7,8,8h[4:1],1,1,,
{16}1/8,,,7/2,,,6/3,,5/4,,,,1b/8b,,,,
{16}1,8,1,,2,,4,5,4,,3,,
{415}8,,,,,,,,,,,,,,,,,,,,,,,,,,,,,,,,,,,,,,,,,,,,,,,,,,,,
{417}7,,,,,,,,,,,,,,,,,,,,,,,,,,,,,,,,,,,,,,,,,,,,,,,,,,,,
{16}3,4,3,,2,,1,2,3,,8,7,6,,,,
{8}8/7,7,8/7,5,4/3,4,4/3,,
{16}6,5,6,,7,,8,1,8,,8,,7,,,,
{8}2/1,2,3/1,4,8/7,7,8/6,,
{16}2,1,2,,3,,4,3,4,3,4,,1,,,,
{4}1/3,4/2,7/5,8/6,
{8}5/1,6/2,3/7,8/4,1/8,1,1b/8b,,
{16}1/3,,,6/8,,,4h[8:3],,3,,2,,3,,,,
{16}7/5,,,4/2,,,2h[8:3],,3,4,3,,1,,,,
{4}1-5[10000:1251],8-4[8:1],1-4[8:1],8-5[8:1],
{16}1,2,3,4,5,6,7,8,1,,2,,1b,,,,
{8}1,,2-7[4:1],3,4,5,6,,
{8}7,7,6-3[4:1],7,8,1,2,,
{4}1-6[4:1],2-5[4:1],,,
{1}1^6[8:5],
{1}5^2[8:5],
{1}1-6[8:5]/2-5[8:5],
{1}7-4[8:5]/8-3[8:5],
{4}2/1-4[8:5],3,5,6,
{8}5/4-7[8:5],,6,8,8,1,1,,
{4}8/7-2[8:5],1,3,4,
{8}3/2-5[8:5],,4,6,6,7,7b,,
{2}5-8[4:1],7-3[4:1],
{2}2-6[4:1],1-4[4:1],
{2}5-8[8:1],8-4[5000:627],
{16}1b,2,3,4,8b,7,6,5,1b,2,3,4,8b,7,6,5,
{8}1/3,2,3/1,2,8/6,7,8/6,7,
{16}1,,8,,1,,4,5,4,5,4,,5,,,,
{8}5/7,6,7/5,6,4/2,3,4/2,3,
{16}4,,5,,4,,8,1,8,1,8,,1,,,,
{8}1/2,3,2/1,3,5/6,4,6/5,4,
{8}6/4,4/6,5/3,3/5,8/1,1/8,5/4,4/5,
{8}4,4,3,3,2,2,1,1,
{859}1b,,,,,,,,,,,,,,,,,,,,,,,,,,,,,,,,,,,,,,,,,,,,,,,,,,,,,
{623}2,,,,,,,,,,,,,,,,,,,,,,,,,,,,,,,,,,,,,,,
{981}3,,,,,,,,,,,,,,,,,,,,,,,,,,,,,,,,,,,,,,,,,,,,,,,,,,,,,,,,,,,,,,
{16}4,
{721}5b,,,,,,,,,,,,,,,,,,,,,,,,,,,,,,,,,,,,,,,,,,,,,,
{832}6,,,,,,,,,,,,,,,,,,,,,,,,,,,,,,,,,,,,,,,,,,,,,,,,,,,
{625}7,,,,,,,,,,,,,,,,,,,,,,,,,,,,,,,,,,,,,,,
{16}8,1b,2,3,4,
{347}5b,,,,,,,,,,,,,,,,,,,,,,
{16}6,
{763}7,,,,,,,,,,,,,,,,,,,,,,,,,,,,,,,,,,,,,,,,,,,,,,,
{16}8,
{8}1/2,2,1/2,2,7/8,7,7/8,7,
{16}6,,5,,4,,2,3,2,3,2,,3,,,,
{8}6/5,6,6/5,6,4/3,3,3/4,3,
{16}2,,1,,8,,7,6,7,6,7,,6,,,,
{8}2/1,1,8/1,8,7/8,7,7/2,8/1,
{4}5h[4:1]/1h[4:1],,8/4,1b/8b,
{4}4,3,2,1,
{4}8,7,6,5,
{8}4,3,2,1,8,7,6,5,
{16}4b,3,2,1,8b,7,6,5,4b,3,2,1,1b/8b,2/7,3/6,4/5,
{4},6b/3b,2b/7b,8b/1b,
{2}2-5[8:1],7-4[8:1],
{4}1-4[16:1],8-5[16:1],2-6[8:1],,
{2}1-4[4:1]/8-5[4:1],,
E
&inote_6=(130.0){1},,
{16}3,,3,,6,5,6,5,,2,,2,,4,3,,
{16}6,,6,,3,4,3,4,,7,,7,,5,6,,
{16}4,,5,,4,5,4,5,,3/6,,3/6,,4/5,4/5,,
{8}3/6,,2/7,,1/8,4/5,2b/7b,,
{8}7/5-1[8:1],6,5,,2/4-8[8:1],3,4,,
{8}7/5>1[8:1],6,5,,2/4<8[8:1],3,4,,
{8}7/5-1[8:1]*-2[8:1],6,5,,2/4-7[8:1]*-8[8:1],3,4,,
{16}5/7,,,2/4,,,3/6,,1-4[8:1]/8-5[8:1],,,,1b/8b,,,,
{8}1/4-8[8:1],2,3/4,2,8/5-1[8:1],7,5/6,7,
{8}1/4<8[8:1],2,3/4,2,8/5>1[8:1],7,5/6,7,
{8}1/4V68[8:1],2,3/4,2,8/5V31[8:1],7,5/6,7,
{16}6/8,,,1/3,,,2/7,,4/5,,,,2b/7b,,,,
{4}1-5[8:1]/2-6[8:1],1^4[8:1]/2^7[8:1],1/2,4/8,
{8}2-6[8:1],7-3[8:1],2>6[4:1],7,2,1,8,7,
{8}5/6-1[8:1],4/7,6,5,4/3-8[8:1],2/5,3,4,
{8}1/5,2/6,3/7,8/4^1[8:1],8,
{983}8,,,,,,,,,,,,,,,,,,,,,,,,,,,,,,,,,,,,,,,,,
{625}7,,,,,,,,,,,,,,,,,,,,,,,,,,
{983}6,,,,,,,,,,,,,,,,,,,,,,,,,,,,,,,,,,,,,,,,,
{4}5,
{4}7-3[8:1]/8-4[8:1],7^2[8:1]/8^5[8:1],7/8,1/5,
{8}7-3[8:1],2-6[8:1],7<3[4:1],2,7,8,1,2,
{4}7-4[8:1]/8-3[8:1],7/8,1-6[8:1]/2-5[8:1],1/2,
{4}1-5[8:1]/8-4[8:1],1^4[8:1]/8^5[8:1],1/8,2b/7b,
{16}2pp5[4:1],,,1,,,8h[4:1],,,,6,,5,,4,,
{16}7qq4[4:1],,,8,,,1h[4:1],,,,3,,4,,5,,
{16}2^5[16:3],,,5-1[8:1],,,1,,7^4[16:3],,,4-8[8:1],,,8,,
{16}2^5[16:3],,,5-1[8:1],,,1,,8<4[8:1],,,,8>4[8:1],,,,
{4}8,5/7-3[8:1],7/2-6[8:1],2/8,
{4}3b-8[8:1]/7b-4[8:1],3/7,2b-5[8:1]/6b-1[8:1],2/6,
{8}2bV48[4:1]/7bV51[4:1],,,,,,2/7,3/6,
{1}4qq1[2:1]/5pp8[2:1],
{16}3h[4:1],,,,4,,6,5,,4/7,,3,4,,,,
{16}6h[4:1],,,,5,,3,4,,2/5,,6,5,,,,
{16}3h[4:1],,,,4,,6,5,,4/7,,3,4,,,,
{1}2pp5[2:1]/6pp1[2:1],
{1}3qq8[2:1]/7qq4[2:1],
{1}1pp8[8:3]/5pp4[8:3],
{1}4qq5[8:3]/8qq1[8:3],
{16}5/2h[4:3],,,5,,,6,,,7,,,8,,,,
{16}4/7h[4:3],,,4,,,3,,,2,,,1,,,,
{16}5/2h[4:3],,,5,,,6,,,7,,,8,,,,
{16}2b/7b,,,,,,,,2/7,,2/7,,1,1,1,1,
{4}7-3[8:1]/8-4[8:1],7^2[8:1]/8^5[8:1],7/8,1/5,
{8}7-3[8:1],2-6[8:1],7>3[4:1],2,7,6,5,4,
{8}3/5-1[8:1],4,5/6,7,6/4-8[8:1],5,3/4,2,
{8}4/8,3/7,2/6,1/5^8[8:1],1,
{983}1,,,,,,,,,,,,,,,,,,,,,,,,,,,,,,,,,,,,,,,,,
{625}2,,,,,,,,,,,,,,,,,,,,,,,,,,
{983}3,,,,,,,,,,,,,,,,,,,,,,,,,,,,,,,,,,,,,,,,,
{4}4,
{4}1-5[8:1]/2-6[8:1],1^4[8:1]/2^7[8:1],1/2,4/8,
{8}2-6[8:1],7-3[8:1],2<6[4:1],7,2,3,4,5,
{4}5-2[8:1]/6-1[8:1],5/6,3-8[8:1]/4-7[8:1],3/4,
{4}4-8[8:1]/5-1[8:1],4^1[8:1]/5^8[8:1],4/5,2b/7b,
{16}7qq4[4:1],,,1,,,2^7[8:1],,,,3,,4,,5,,
{16}2pp5[4:1],,,1,,,7^2[8:1],,,,6,,5,,4,,
{16}6^1[16:3],,,1-5[8:1],,,5,,3^8[16:3],,,8-4[8:1],,,4,,
{16}6^1[16:3],,,1-5[8:1],,,5,,2>6[8:1],,,,2<6[8:1],,,,
{4}2,4/2-5[8:1],2/7-3[8:1],1/7,
{4}1-4[8:1]/8-5[8:1],,2/4,5/7,
{16}2pp5[4:1],,,8,,,6<2[8:1],,,,6,,5,,4,,
{16}7qq4[4:1],,,1,,,3>7[8:1],,,,3,,4,,5,,
{16}3^8[16:3],,,8q4[8:1],,,5,,6^1[16:3],,,1p5[8:1],,,4,,
{16}3^8[16:3],,,8q4[8:1],,,5,,7<3[8:1],,,,7>3[8:1],,,,
{4}7,5/7-4[8:1],7/2-6[8:1],2/8,
{8}8b/1b^4[8:1],,1/6,7,1b/8b^5[8:1],,3/8,2,
{8}8b/1b>8[4:1],,,,,,2/7,3/6,
{4}4qq1[2:1]/5pp8[2:1],,,,
E
