&title=BaBan!! -甘い罠-
&artist=Hiro/永江理奈
&wholebpm=161
&demo_seek=81.71
&demo_len=12.29
&lv_1=4
&lv_2=6
&lv_3=8+
&lv_4=12
&lv_5=12
&des_4=譜面-100号
&des_5=maimai TEAM
&inote_1=(161.0){1},,,
{2}7,8,
{2}7,8,
{2}1,2,
{2}1,2,
{2}1,8,
{2}1,8,
{2}7,8,
{2}7,8,
{2}1,2,
{2}3,4,
{2}5,6,
{1}7/8,
{2}7,7,
{2}8,8,
{4}1,2,2,,
{4}2,1,1,,
{2}8,8,
{2}7,7,
{1}8-4[2:1],,
{2}3,2,
{2}1,1,
{4}8,7,7,,
{4}7,8,8,,
{2}1,1,
{2}2,2,
{1}1-5[2:1],,
{2}1,1,
{1}2h[2:1],
{2}1,1,
{1}8h[2:1],
{2}8,8,
{1}7h[2:1],
{2}8,8,
{1}2h[2:1]/1h[2:1],
{2}1,1,
{2}1/2,8b,
{2}8/1,1/8,
{4}7,8,1,,
{2}7/8,2/1,
{4}3,2,1,,
{2}1/8,8/1,
{4}2,1,8,,
{2}2/1,8/7,
{1}3h[2:1],
{2}2/1,8/7,
{1}6h[2:1],
{1}6-2[2:1],,
{2}1,8,
{4}7,7,8b,,
{2}1/2,1/2,
{2}1,8,
{2}8/7,8/7,
{2}8,1,
{2}7/1,8/2,
{2}1,8,
{2}8/2,7/1,
{2}8,1,
{2}1/2,3/4,
{2}5,6,
{2}7/8,5/6,
{2}4,3,
{2}6/4,5/3,
{2}2,1,
{2}8/1,8/1,
{2}8,1b,
{2}8,7,
{2}6,5,
{2}4,3,
{2}2,1,
E
&inote_2=(161.0){1},,,
{4},6,6,6,
{4},7,,8,
{4},1,1,1,
{4},2,,3,
{4},4,4,4,
{4},5,,6,
{4},7,7,7,
{4},8,,7,
{4}4,3,2,1,
{4}5,6,7,8,
{4}4,3,2,1,
{1}8/1,
{4},5/6,,4/5,
{4},4/3,,5/4,
{4},7/5,,4/3,
{4},3/1,,4/3,
{4},5,,6,
{4},7,,8,
{4},7-3[4:1],,,
{4},1,,1,
{4},8,,8,
{4},7,,7,
{4},6,,6,
{4},5,,4,
{4},3,,2,
{4},2-6[4:1],,,
{4},1,,1,
{4},1,,,
{4},7h[2:1],,,
{4},5h[2:1],,,
{4},3h[2:1],,,
{4},1h[2:1],,,
{4},7h[2:1],,,
{4},5h[2:1],,,
{4},3h[2:1],,,
{4},1,,1,
{4},1,,1/2,
{4},3b,,,
{4},1,,2/8,
{4},8,,1/7,
{4},7,,6/8,
{4},2,,1/3,
{4},6,,5/7,
{4},3,,2/4,
{4},7,,7/6,
{4},2,,3/2,
{4},8,,7/8,
{4},1,,1/2,
{4},7-2[4:1],,,
{4},2-7[4:1],,,
{4}7,6,5,4,
{4}3,2,1,8b,
{4},1/2,1/2,1/2,
{4},1,,8,
{4},7/8,7/8,7/8,
{4},8,,1,
{4},2/4,2/4,4/2,
{4},1,,8,
{4},7/5,7/5,7/5,
{4},8,,1,
{4},1/2,1/2,1/2,
{4},1,,8,
{4},8/7,8/7,8/7,
{4},8,,1,
{4},1/7,1/7,1/7,
{4},1,,8,
{4},8/2,8/2,8/2,
{4},8,,8b,
{4},7,,6,
{4},5,,4,
{4},3,,2,
{4},1,,1,
E
&inote_3=(161.0){1},,
{2}3h[4:1],6h[4:1],
{2}4h[2:1],5h[2:1],
{2}3h[1667:834],6h[2:1],
{2}2h[2:1],7h[2:1],
{2}1h[2:1],8h[2:1],
{4}1,2,1,3,
{4}1,4,1,5,
{4}8,7,8,6,
{4}8,5,8,4,
{1}5h[2:1],
{2}4/2,7/5,
{4}4/5,3/6,2/7,1b/8,
{1}7-2[2:1],
{8}1h[2:1],,7,,7,,8,8,
{4},,,6,
{8}5,,6,,7,,7,7h[8:5],
{4},8,8,8,
{8}4,,3,,2,,2,2h[8:5],
{4},1,1,1,
{2}2/8h[4:1],7/1h[4:1],
{4}7,8/2,1/3,,
{4}1,2/3,3,5/4,
{4}5,7/6,7,1/8,
{4}2/1,3,4,5,
{4}8/7,6,5,4,
{4}3/2,1,8,7,
{4}6/7,8,1,2,
{2}8h[4:1]/7h[4:1],2h[4:1]/1h[4:1],
{8}2h[4:1]/7h[4:1],,,,,1,1,2h[8:5],
{8},,,,,,8,1h[8:5],
{8},,,,,,7,8h[8:5],
{8},,,,,,6,7h[8:5],
{8},,,,,7,7,6h[1561:975],
{8},,,,,,8,7h[139:87],
{8},,,,,1,1,8h[4:1],
{8},,2,,1,,
{999}7h[1999:2499],,,,,,,,,,,,,,,,,,,,,,,,,,,,,,,,,,,,,,,,,,,,,,,,,,,,,,,,,,,,,,,,,,,,,,,,,,,,,,,,,,,,,,,,,,,,,,,,,,,,,,,,,,,,,,,,,,,,,,,,,,,,,
{8}8,
{8},1,,2,,3,,4,
{8},,2/8,,,2/1,,8/7,
{8},,2/8,,,1,8b,,
{8}1h[4:1],,,2,,3,,4,
{8},,,,,1,,7,
{8}7h[4:1],,,,,5,,6,
{8},7,,1h[8:3],,,,,
{8}8h[625:156],,,7,,6,,5,
{8},,,,,8,,2,
{8}2h[4:1],,,4,,3,,2,
{8},
{865}1,,,,,,,,,,,,,,,,,,,,,,,,,,,,,,,,,,,,,,,,,,,,,,,,,,,,,,,,,,,,,,,,,,,,,,,,,,,,,,,,,,,,,,,,,,,,,,,,,,,,,,,,,,,
{961}8h[1923:964],,,,,,,,,,,,,,,,,,,,,,,,,,,,,,,,,,,,,,,,,,,,,,,,,,,,,,,,,,,,,,,,,,,,,,,,,,,,,,,,,,,,,,,,,,,,,,,,,,,,,,,,,,,,,,,,,,,,,,,,,,,,,,,,,,,,,,,,,,,,,,,,,,,,,,,,,,,,,,,,,,,,,,,,,,,,,,,,,,,,,,,,,,,,,,,,,,,,,,,,,,,,,,,,,,,,,,,,,,,,,,,,,,,,,,,,,,,,,,,,,,,,,,,,,,,,,,,,,,,,,,,,,,,,,,,,,,,,,,,,,,,,,,,,,,,,,,,,,,,,,,,,,,,,,,,,,,,,,,,,,,,,,,,,,,,,,,,,,,,,,,,,,,,,,,,,,,,,,,,,,,,,,,,,,,,,,,,,,,,,,,,,,,,,,,,,,,,,,,,,,,,,,,,,,,,,,,,,,,,,,,,,,,,,,,,,,,,,,,,,,,,,,,,,,,,,,,,,,,,,,,,,,,,,,,,,,,,,,,,,,,,,,,,,,,,,,,,,,,,,,,,,,,,,,,,,,,,,,,,,,,,,,,,,,,,,,,,,,,,,,,,,,,,,,,,,,,,,,,,,,,,,,,,,,,,,,,,,,,,,,,,,,,,,,,,,,,,,,,,,,,,,,,,,,,,,,,,,,,,,,,,,,,,,,,,,,,,,,,,,,,,,,,,,,,,,,,,,,,,,,,,,,,,,,,,,,,,,,,,,,,,,,,,,,,,,,,,,,,,,,,,,,,,,,,,,,,,,,,,,,,
{8}1h[4:1],,,2,,1,,8,
{8},1,8h[4:1],,,,1,8h[8:15],
{2}2h[4:1],3h[4:1],
{8}2,,1,1b,,,,,
{1}1-4[2:1]/8-5[2:1],
{1}4^1[10000:4997]/5^8[10000:4997],
{8}7,7,,8,8,,1,1,
{8},2/8,,1/7,,2/8,,,
{8}2,2,,1,1,,8,8,
{8},1h[8:5],8,,7,7,,,
{8}1,8,,8,7,,7,6,
{8},,6/5,,7,8,7,,
{8}8,1,,1,2,,2,3,
{8},8h[8:5],1,,2,2,,,
{8}8,1,,1,2,,2,3,
{8},,3/4,,2,1,2,,
{8}1,8,,8,7,,7,6,
{8},1h[8:5],8,,7,7,,,
{8}6,5,,3,4,,7,6,
{8},2,3,,8/7,,2/1,,
{8}7,8,,2,1,,7,8,
{4}1,2,3/4,5/6,
{2}2/8h[1:2],1,
{2}2,1,
{2}2,1,
{4}1,8,7,6b,
E
&inote_4=(161.0){1},,
{8}7/6,7/2,,,2/3,2/7,,,
{4}1/8,2/3,8/2,1/3,
{4}2/1,3/8,1/4,2/7,
{4}1/8,7/6,7/1,8/6,
{4}7/8,6/1,1/4,3/6,
{4}2/1,3/7,4/5,3/7,
{4}4/2,8/2,4/6,8/2,
{4}8/7,2/6,4/5,2/6,
{4}7/5,7/1,3/5,1/7,
{1}5-2[2:1],
{1}4-7[2:1],
{2}6-1[4:1],3-8[4:1],
{1}1h[4:3],
{4}1/8h[2:1],7,
{1000}1,,,,,,,,,,,,,,,,,,,,,,,,,,,,,,,,,,,,,,,,,,,,,,,,,,,,,,,,,,,,,,,,,,,,,,,,,,,,,,,,,,,,,,,,,,,,,,,,,,,,,,,,,,,,,,,,,,,,,,,,,,,,,,,,,,,,,,,,,,,,,,,,,,,,,,,,,,,,,,,,,,,,,,,,,,,,,,,,,,,,,,,,,,,,,,,,,,,,,,,,,,,,,,,,,,,,,,,,,,,,,,,,,,,,,,,,,,,,,,,,,,,,,,,,,,,3,,,,,,,,,,,,,,,,,,,,,,,,,,,,,,,,,,,,,,,,,,,,,,,,,,,,,,,,,,,,,,,,,,,,,,,,,,,,,,,,,,,,,,,,,,,,,,,,,,,,,,,,,,,,,,,,,,,,,,,,,,,,1h[8:3],,,,,,,,,,,,,,,,,,,,,,,,,,,,,,,,,,,,,,,,,,,,,,,,,,,,,,,,,,,,,,,,,,,,,,,,,,,,,,,,,,,,,,,,,,,,,,,,,,,,,,,,,,,,,,,,,,,,,,,,,,,,,
{4},8h[2:1],7,1,
{8}8/1h[2:1],,2,,8,,6,8h[8:3],
{4},1h[2:1],2,8,
{4}7h[4:1],8h[4:1],1h[4:1],2,
{4}2h[4:1],1h[4:1],8h[4:1],7,
{4}2/1h[4:1],2,7/8h[4:1],7,
{4}3/4h[4:1],3,6/5h[4:1],6,
{8}1/8h[4:3],,7,,1,,7,1h[8:7],
{4},2,3,4,
{4}5h[4:7],4,3,2,
{4}1,8,7,6,
{8}1h[8:3],,,2h[8:3],,,3h[8:3],,
{8},6h[8:3],,,7h[4:1],,8h[4:1],,
{2}1,8,
{8}7/2,5b/4b,,,,6,7,6-2[4:1],
{8},,,,,3,2,3-7[4:1],
{8},,,,,6,7,6-2[4:1],
{8},,,,,3,2,3-7[4:1],
{8},,,,,6,7,6-2[4:1],
{8},,,,,3,2,3-7[4:1],
{8},,,,,6,5,4,
{8}3h[4:1],,4,,6h[4:1],,5,2h[8:3],{1},
{8}1/8,,8/1h[2:1],,,2h[8:3],,7h[4:1],
{8},3b,6b,,,,5-1[8:1],,
{8},,,8/7,,4/3,,6/2h[8:9],
{4},4,4,4,
{8}7h[2:1],,5,,2h[4:1],,4,1,
{8},2,,3,,4-8[4:1],,,
{8},,,1/2,,5/6,,3/7h[8:9],
{4},5,5,5,
{4}2h[2:1],4,7h[2:1],5,
{4}2h[1:1],4,4,4,
{4}7h[2:1],5,1h[2:1],3,
{4}8h[1:1],6,6,6-2[2:1],
{4},,,3-7[2:1],{1},
{1}1h[4:3],,
{8}7/8h[8:1],1h[8:3],,2,8h[8:3],,7,1h[8:7],
{8},2,,7,,2,,,
{8}2/1h[8:1],8h[8:3],,7,1h[8:3],,2,8h[8:7],
{8},7-2[4:1],,,,,,,
{8}7/8h[8:1],1h[8:3],,2,8h[8:3],,7,1h[4:1],
{8},2,1,8,7,7,8,,
{8}2/1h[8:1],8h[8:3],,7,1h[8:3],,2,8h[4:1],
{8},7,1,2,1,8,,,
{8}6/7h[8:1],2h[8:3],,3,7h[8:3],,6,2h[4:1],
{8},3,2,3,6,7,6,,
{8}3/2h[8:1],7h[8:3],,6,2h[8:3],,3,7h[8:7],
{8},6^3[8:3],,,,,,,
{8}1/2h[4:1],8,,8/7h[4:1],1,,1/2h[4:1],8,
{8},8/7h[4:1],1,,8/1,,3/6,,
{8}8/7h[4:1],1,,1/2h[4:1],8,,8/7h[4:1],1,
{2}2-5[4:1],4-7[4:1],
{1}1h[1:2],,,
E
&inote_5=(161.0){1},,
{8}7,8,,,4,3,,,
{4}5,4/2,3/1,8/2h[4:1],
{8}7,,8/2,,3/1,,4,5,
{4},5/7,6/8,1/7h[4:1],
{4}2,1/7,6/8,7,
{4}5,4/2,3/1,8/2h[1:1],
{8}1,,3,,4,,5,5/3,
{4},5/7,8/6,1/7h[1:1],
{4}8,6,5,4,
{4}8-5[8:1],1-4[8:1],7-4[8:1],8-3[8:1],
{4}1-6[8:1],2-5[8:1],7-2[8:1],6-3[8:1],
{2}7^2[8:1],3^6[8:1],
{4}8h[4:1],2h[4:1],6h[4:1],4h[4:1],
{4}6h[1:1],7,8,1,
{4}2h[1:1],3,4,5,
{4}6h[1:1],7,8,1,
{4}2h[1:1],3,4,5,
{4}6h[4:1],7h[4:1],2h[4:1],3h[4:1],
{8}5h[4:1],,4h[4:1],,8h[2:1],6,6,6,
{4},4^7[4:1]/8^3[4:1],,,
{4}3/7,5/3,1/7,8,
{4}6/2,5/1,8/4,7/3,
{4}2/6h[4:1],2,5/1h[4:1],5,
{4}8/4h[2:1],7,6,1/5,
{4}6/2h[2:1],7,8,5/1,
{4}7-3[4:1],8,6,7/3,
{4}1,4/8-5[4:1],7,6,
{4}4/8,7/3,2/6-2[4:1],1,
{8}1,8,,,,5,7,5/1h[8:5],
{8},,,,,5,7,6/2h[400:251],
{8},,,,,4,2,4/3h[8:5],
{8},,,,,6,4,8/2h[8:5],
{8},,,,,3,5,1/7h[8:5],
{8},,,,,5,3,7/1h[8:5],
{8},,,,,4,6,2/8h[8:5],
{8},,1,,2,,3,4,
{4},3/7,6/4,5/1,
{8},,6/2,,4/6,5/3,,3/7,
{8},,8b/4b,,3,2,1,8,
{8}8h[8:5],,4,4,,3,,6/8,
{8},5/7,,2/4,,3/1,2,2,
{8}4h[8:5],,8,8,,7,,6/8,
{8},3/1,,7/5,,2/4,,,
{8}4/8h[8:5],,3,3,,7,,8/2,
{8},7/1,,4/6,,5/3,4/2,2,
{8}7h[8:3],,8,8,,1/6,,2/7,
{8},1,3-7[8:1],,,,4/8,2,
{8}1h[8:3],,8,8,,7,,8/7,
{8},1,1,,,,7,8,
{4}1/2h[4:1],3^6[4:1],,5h[4:1],
{2}4h[4:1],3/2^7[4:1],
{4}4b,5b,6b,7b,
{8}8b,1,8,1,5,4,5b,,
{8}7/8,8/7,,1/2,2/1,,3/6,6/3,
{8},4/8,,3^6[8:1]/7^2[8:1],,,,,
{8}6/3,3/6,,5/6,5/6,,3/4,4/3,
{8},5,4,6,3h[8:3],7h[8:3],,,
{8}2,1/8,,6/7,6/7,,2/3,3/2,
{8},4/8,,5/1,,8,1,,
{8}4/5,4/5,,7/4,4/7,,5/2,2/5,
{8},2,1,8,1/7,8/2,,,
{8}7/1,2/1,,1/3,3/2,,3/5,5/4,
{8},2/6,,3/7,,8/4,1,,
{8}5/3,5/4,,7/5,6/7,,1/7,7/8,
{8},2,1/2,7,7/8,7/1,,,
{8}6/1,7/1,,8/3,8/2,,7/2,8/3,
{8},4,6,8,2,3,2,,
{8}5/1,1/6,,8/4,3/8,,3/7,3/8,
{4}1h[4:1],2h[4:1],3h[4:1],4h[4:1],
{4}5h[4:3],4,3,2,
{8}1h[4:3],,2,,3,,4,5h[8:7],
{4},6,7,8h[1:1],
{4},1,,2,
E
