&title=美しく燃える森
&artist=東京スカパラダイスオーケストラ [cover]
&wholebpm=140.06
&demo_seek=56
&demo_len=23
&lv_1=2
&lv_2=6
&lv_3=7
&lv_4=9
&lv_5=10+
&des_4=譜面-100号
&des_5=畳返し
&inote_1=(140.06){1},,
{1}2,
{1}3,
{1}2,
{1}3,
{1}2,
{2}3,2,
{2}1,1,
{4},8,,1,
{4},8,,8,
{4},7,,8,
{4},7,,7,
{4},6,,7,
{4},6,,6,
{4},5,,4,
{4},3,,2,
{4},1,,1,
{4},2,,2,
{4},1,,8,
{4},7,,7,
{4},8,,1,
{4},2,,2,
{4},2,,2,
{4},2,,,
{1}2-6[2:1],,
{4},5,,4,
{4},3,,2,
{4},1,,1,
{4},2/1,,1/8,
{4},8,,8,
{4},8/7,,8b,
{4},1,,1,
{4},2-7[4:1],,,{1},
{4},7-2[4:1],,,{1},
{4},5,,6,
{4},7,,8,
{1}8h[431:322],
{4},1,,2,
{4},3-6[4:1],,,{1},
{4},6-3[4:1],,,{1},
{4},2,,2,
{4},3,,3,
{4},4,5,6b,
{2}7h[2:3],{1},,
E
&inote_2=(140.06){1},,
{1}6h[2:1],
{1}4h[2:1],
{1}2h[2:1],
{1}8h[2:1],
{1}6h[2:1],
{1}8h[2:1],
{2}3/4,4/5,
{4}2/1,2/1,,1,
{4},8,,1,
{4}7/8,7/8,,8,
{4},1,,8,
{4}3/4,3/4,,4,
{4},5,,7,
{4}6/5,6/5,,2,
{4},1h[2:1],,,
{4},1,,1/8,
{4},8,,8/1,
{4},1,,7/2,
{4},8,,7/2,
{4},6,,3/6,
{4},4,,5/4,
{4},5,,6/5,
{4},6,,7,
{4},7-3[10000:2501],,,,
{4}2,,2/1,
{4},7,,8/7,
{4},2,,2/1,
{4},1,,2/8,
{4},8,,1/7,
{4},1,,2/4,
{4},2-6[4:1],,,
{4}8/7,8/7,,8,
{4},1,,2,
{4}2/1,1/2,,2,
{4},3,4,5,
{4}6,7,,7,
{4},2,,2,
{4},3,,3,
{4}1,1,8b,1/8,
{4}2/1,2/1,,1,
{4},8,,7,
{4}7/8,7/8,,7,
{4},7,,8-4[4:1],
{4},,,1-5[4:1],
{4},,,6,
{4},7,,7/8,
{4},7,8,1b,
{2}2h[2:3],{1},,
E
&inote_3=(140.06){1},
{2}4h[2:1],3,
{2}2h[2:1],1,
{2}8h[2:1],7,
{2}6h[2:1],5,
{2}4h[2:1],3,
{2}2h[2:1],1,
{2}6/2,7/3,
{4}7/1,8,2/7,1,
{8}2,,1,1,,3,,3/1,
{4},6/4,,5/3,
{8}7,,8,8,,6,,8/6,
{4},7/3,,6/2,
{8}6,,5,5,,4,,4/5,
{4},7/1,,8/2,
{8}3,,4,4,,5,,5/4,
{4},8/1,,2b/7,
{4}2/8,3,2,3,
{4}6/3,5,6,5,
{4}1/5,8,1,8,
{4}3/8,4,3,4,
{4}7/4,6,7,6,
{4}2/6,1,2,1,
{4}1/6,7,6,7,
{4}7/2,1,2,1,
{1}8-4[2:1],
{4}5,4,5,4,
{4}6,6,8,8,
{4}3,3,1,1,
{1}7^2[2:1],
{1}1-5[2:1],
{4}3,4,5,6,
{1}6^3[2:1],
{8}7h[4:1],,1,1,,6/8,,7,
{4},7/3,,6/2,
{8}2h[4:1],,8,8,,1/3,,2,
{8},,6/2,,1,2,
{625}1,,,,,,,,,,,,,,,,,,,,,,,,,,,,,,,,,,,,,,,,,,,,,,,,,,,,,,,,,,,,,,,,,,,,,,,,,,,,,
{347}3h[625:548],,,,,,,,,,,,,,,,,,,,,,,,,,,,,,,,,,,,,,,,,,,,
{4},5,6,5,
{4}6h[4:3],4,3,4,
{8}2,2,,,7/1,,2/8,,
{1}3-8[4:1],
{8}7h[4:1],,1,1,,8/6,,7,
{4},8/4,,7/3,
{8}2h[4:1],,8,8,,1/3,,2,
{8},,1/5,,8,7,
{278}8,,,,,,,,,,,,,,,,,,,,,,,,,,,,,,,,,,,
{556}7h[673:588],,,,,,,,,,,,,,,,,,,,,,,,,,,,,,,,,,,,,,,,,,,,,,,,,,,,,,,,,,,,,,,,,,,,,
{4},1,2,1,
{4}1h[1250:937],8,7,8,
{1}3-8[4:1],
{4}7,8,1,2,
{2}2h[2:3],{1},,
E
&inote_4=(140.06){1},
{8}1h[4:1],,,2h[8:3]/1h[8:3],,,,,
{8}4h[4:1],,,4h[8:3]/3h[8:3],,,,,
{8}8h[4:1],,,8h[8:3]/1h[8:3],,,,,
{8}4h[4:1],,,4h[8:3]/5h[8:3],,,,,
{8}8h[4:1],,,7h[8:3]/8h[8:3],,,,,
{8}5h[4:1],,,5h[8:3]/6h[8:3],,,,,
{8}1h[4:1],,,1h[8:3]/8h[8:3],,,,,
{4}2,3,7,6,
{8}1,,3,6,,2/8,,1/7,
{8},6,,6,,6,,6,
{8}8,,6,3,,1/7,,2/8,
{8},3,,3,,3,,3,
{8}8,,4,3,,5/2,,7/4,
{8},6,,6,,6,,6,
{8}1,,5,6,,7/4,,5/2,
{8},3/8,,1/6,,7/4,,5/2,
{8},4,,4/3,,4,,4/3,
{8},5,,5/6,,5,,5/6,
{8},2,,2/4,,2,,2/4,
{8},7,,7/5,,7,,7/5,
{8},4,,4/3,,2,,2/3,
{8},5,,5/6,,7,,7/6,
{8},3,,3/4,,5,,5/4,
{8},6,,6/5,,4,,4/5,
{8},3^6[4:1],,,,2^7[4:1],,,
{8},6,,5,,4,,3,
{8},6^3[4:1],,,,7^2[4:1],,,
{8},3,,4,,5,,6,
{8},1,,1/5,,2,,6/2,
{8},3,,3/7,,4,,4/8,
{8},7,,7/3,,6,,6/2,
{8},5,,5/1,,8/4,,5/1,
{8}2,,6,5,,2/8h[4:1],,7-4[8:3],{1},
{8}7,,3,4,,7/1h[4:1],,2-5[8:3],
{8},,,,,,6,6h[2:1],
{8},,5,5h[2:1],,,4,4h[2:1],
{8},,3,3h[8:3],,,2^7[4:1],,
{8},,,,,8,1,8,
{8},5/6,,8/7,,4/3,,2/1,
{8}8,,3,2,,1b/5b,,3h[8:7]/7h[8:7],{1},
{8}1,,6,7,,8b/4b,,6h[8:3]/2h[8:3],
{8},,,,4,,3,2h[2:1],
{8},,4,5h[2:1],,,4,3h[2:1],
{8},,6,6h[2:1],,,3,4h[2:1],
{8},,6,5h[2:1],,,8,1h[8:5],
{8},,
{499}5,,,,,,,,,,,,,,,,,,,,,,,,,,,,,,,,,,,,,,,,,,,,,,,,,,,,,,,,,,,,,,,,,,,,,,,,,,,,,,,,,,,,,,,,,,,,,,,,,,,,,,,,,,,,,,,,,,,,,,,,,,,,,
{501}5h[2000:2499],,,,,,,,,,,,,,,,,,,,,,,,,,,,,,,,,,,,,,,,,,,,,,,,,,,,,,,,,,,,,,,,,,,,,,,,,,,,,,,,,,,,,,,,,,,,,,,,,,,,,,,,,,,,,,,,,,,,,,,,,,,,,
{1}3-7[4:3],,
E
&inote_5=(140.06){1},
{8}8,,5,5,,6,6,7,
{8}1,,4,4,,3,3,2,
{8}6,,7,8,,6,5,6,
{8}3,,1,3,,1,2,1,
{8}7,,1,2,,2/7,3/6,4/5,
{8}3,,5,6,,3/6,7/2,8/1,
{16}2/7,,,,4,,5,,,,6/1,,8,7,8,7,
{8}8,1,2,3,4,6/5,7/5,8b/5,
{8}1,,7,8,,2/8,,1/7,
{8}6h[4:1],,4,4,3h[4:1],,5,5,
{8}8,,2,1,,1/7,,2/8,
{8}3h[4:1],,5,5,6h[4:1],,4,4,
{8}2/6,,1,7,,3/7,,1/5,
{8}6h[4:1],,2,1,3h[4:1],,7,8,
{8}3/7,,8,2,,2/6,,4/8,
{16}5,,3,,2,1,2,,,,8b/6,,,,,,
{8},8/2,,3/1,,5/3,,2/4,
{8},1/7,,6/8,,4/6,,5/7,
{8},3/6,,1/8,,5/4,,2/7,
{8},4/8,,1/5,,3/7,,2/6,
{8},1/3,4,,,8/6,5,,
{8},2/4,1,,,5/7,8,,
{8},5/6,8/7,,,3/4,1/2,,
{8},1/6,4/7,,,3/8,2/5,,
{8},6/7,8,5,,2/3,1,4,
{8},1,6/7,4,,8,2/3,5,
{8},8/2,1,8/2,,1/7,8,1/7,
{8},4/2,3,6/4,,5/7,6,3/5,
{16},,4/7,,5,6,5,,,,2/5,,4,3,4,,
{16},,5/6,,7,8,7,,,,3/4,,2,1,2,,
{16}7,,8/6,,1,8,1,,2,,1/3,,8,1,8,,
{16},,4/3,,6/5,,,,,,2/7,,1,8,1b,,
{8}7/3,,4,2,,6/2,,1/5,
{8},2/8,1/7,8/6,,3/5,,1/4,
{8}2/6,,5,7,,3/7,,4/8,
{8},5,6,7h[8:3],3,4,3,2h[4:1],
{8}6h[4:3],,1,2,3h[4:1],,,4h[4:1],
{4}5h[4:3],,3,1,
{8}2,2,,5,6,4/7,3,2,
{16}3,,2,,1,8,,,5,,6,,7,1,7,,
{8}2/6,,5,7,,3/7,,4/8,
{8},1/7,2/8,1/3,,4/6,,5/8,
{8}3/7,,4,2,,2/6,,1/5,
{8},7,5,6h[8:3],4,2,
{415}3,,,,,,,,,,,,,,,,,,,,,,,,,,,,,,,,,,,,,,,,,,,,,,,,,,,,
{417}1h[833:208],,,,,,,,,,,,,,,,,,,,,,,,,,,,,,,,,,,,,,,,,,,,,,,,,,,,
{417}
{8}8h[1999:1499],,2,3h[4:1],,,
{999}4,,,,,,,,,,,,,,,,,,,,,,,,,,,,,,,,,,,,,,,,,,,,,,,,,,,,,,,,,,,,,,,,,,,,,,,,,,,,,,,,,,,,,,,,,,,,,,,,,,,,,,,,,,,,,,,,,,,,,,,,,,,,,
{993}5h[1253:783],,,,,,,,,,,,,,,,,,,,,,,,,,,,,,,,,,,,,,,,,,,,,,,,,,,,,,,,,,,,,,,,,,,,,,,,,,,,,,,,,,,,,,,,,,,,,,,,,,,,,,,,,,,,,,,,,,,,,,,,,,,,
{8}7h[4:3],,,,,,6,5h[4:1],
{8},,
{891}7,,,,,,,,,,,,,,,,,,,,,,,,,,,,,,,,,,,,,,,,,,,,,,,,,,,,,,,,,,,,,,,,,,,,,,,,,,,,,,,,,,,,,,,,,,,,,,,,,,,,,,,,,,,,,,,,
{893}6h[357:89],,,,,,,,,,,,,,,,,,,,,,,,,,,,,,,,,,,,,,,,,,,,,,,,,,,,,,,,,,,,,,,,,,,,,,,,,,,,,,,,,,,,,,,,,,,,,,,,,,,,,,,,,,,,,,,
{8}4,3,2/8,7h[4:1],
{16},,,,1,8,1,8,1,,8/2,,1/3,,2/4,,
{1}3b/5<1[4:3],,
E
