&title=炭★坑★節
&artist=Kai/光吉猛修
&wholebpm=112
&demo_seek=10
&demo_len=17
&lv_1=3
&lv_2=5
&lv_3=7
&lv_4=10+
&lv_5=13
&des_4=譜面-100号
&des_5=ニャイン
&inote_1=(112.0){1},,,
{4},1,,8,
{4},1,,8,
{4},1,,1/8,
{8},,1,,,,2,2,
{4},1,,8,
{4},7,,,
{2}8,8/1,
{2}8,8/1,
{2}7,7,
{8},,6,6,,,6,,
{4},5,,4,
{4},3/4,,3,
{4},4,,5,
{4},6/5,,7,
{4},8,,1,
{4},2/1,,3,
{4},2,,1,
{4},8,,7,
{4},7,,7/8,
{8},,8,8,,,1,,
{4},2,,3,
{2},2,
{2}2,2/1,
{2}2,1,
{8}1,,,,,,2,2b,
{4},2-6[4:1],,,
{4},,,7,
{4},7-3[4:1],,,
{4},,,2,
{4},3,,4,
{4},5h[4:1],,6h[4:1],
{4},7h[4:1],,8h[4:1],
{4},,,1b,
{4},8,,7,
{8},,5/6,,,,6,6,
{4},7,,8,
{4},1,,,
{2}2,3,
{2}2,3,
{2}4/5,5/6,
{8},,6,6b,,,,,
{2}7/8,1/8,
{2}1/2,1/8,
{1}1/8,
E
&inote_2=(112.0){1},
{4},1,,1,
{4},8,,8,
{4},1,,8/1,
{4},7,,7/2,
{4},7/8,,1/2,
{8},,8/7,,,,2,2b,
{4},3,,4,
{4},5,,,
{2}8,7/1,
{2}8/2,8/1,
{2}8,1,
{8}8,,1,1b,,,7,,
{4}6,5,4,3,
{4}4,4/5,4,3,
{4}2,1,8,7,
{4}8,8/1,7,6,
{4}5,4/5,3,2,
{4}2,4/3,2,3,
{4}4,5,6,7,
{4}8,8/1,,4/3,
{4},6/5,,8/7,
{8},,1,1b,,,2,,
{4},8/1,,7,
{2},4/3,
{2}6/5,4/3,
{2}6/5,7,
{8}2/8,,1,,2,,1,1b,
{4},1-4[4:1],,,
{8},,7,7,,,6,6,
{4},8-5[4:1],,,
{8},,7,7,,,8,8,
{4},7-2[4:1],,,
{8},,2,2,,,1,1,
{8},,8,8,,,7,7,
{1}8h[4:3]/1h[4:3],
{4},8/7,,2/1,
{8},,1/8,,,,7,7b,
{4},5/6,,4/3,
{4},8/1,,,
{2}4/6,5/3,
{4}2/8,,7/1,2/1,
{4}3,4/3,5,6/5,
{8}7,,1,1b,8,,,,
{2}7/8,1/8,
{2}3/6,2/6,
{1}3/7,
E
&inote_3=(112.0){1},
{4},3,2,1/2,
{4},6,7,8/7,
{4},7,8,8/1,
{4},3,4,5/4,
{4}2,7/8,7,1/2,
{8}2,,8/7,,7,,2,2b,
{4}3,6/5,6,4/3,
{4}3,4/5,,3,
{4}1/7,6,8/2,3,
{4}6/4,6,5/3,,
{4}7/8,,1/2,8,
{8}1,,7,7b,7,,6,,
{4}5,4-7[4:1],,3-8[4:1],
{4},1b,2,3,
{4}4,5-2[4:1],,6-1[4:1],
{4},8b,7,6,
{4}5,4/5,3,2,
{4}2,3/4,2,2/3,
{4}4,5/4,6,7/6,
{4}8/7,8/1,7,2/1,
{4}6,4/3,2,8/7,
{8}7,,1,1,,,2/1,,
{4}1,8/1,7,7,
{4}7,3,4/3,6,
{4}5/6,3,3/4,6,
{4}5/6,7,1/7,2,
{8}2/8,,1,,2,,1,1b,
{4}3,2,1,8-3[4:1],
{4},7-4[4:1],,5,
{4}6,7,8,1-6[4:1],
{4},2-5[4:1],,1,
{4}2,3,4,5-2[4:1],
{4},6-1[4:1],,4-7[4:1],
{4},3-8[4:1],,,
{1}1h[4:3],
{4}4,3/2,5,7/6,
{8}4,,2/1,,5,,8/7,7/8,
{4},6/5,7,4/3,
{4}2,8/1,,1,
{4}7/2,8,7/2,3,
{4}2/7,6,7/2,1,
{4}4/3,5,6/5,7,
{8}8/7,,1,1b,8,,,,
{2}7/8,1/8,
{2}3/6,2/6,
{1}3/7,
E
&inote_4=(112.0){1},
{4},2,,1/2,
{8},,1,,,8/1,8/7,,
{4},7,,7/8,
{8},,8,,,8/1,1/2,1/8,
{4},4/3,,4/3,
{8},,6/5,,,,8/7,8/7,
{4},6/5,,6/5,
{4},4/3,,4/3-8[8:1],
{4},5/6-1[8:1],,4/3-8[8:1],
{8},,,,2/1,2/1,,,
{2}5/6,4/3,
{8}5/6,1,8b,8b,2/3,,8/1,,
{8}3/2,2/1,1/8,,6/7,,8/1,,
{8}6/7,8/7,8/1,,4/3,,1/2,,
{8}4/3,3/2,2/1,,5/6,,8/7,,
{8}5/6,7/6,7/8,,5/4,,3/2,,
{8}5/4,4/3,3/2,,4/5,,6/7,,
{8}5/4,6/5,6/7,,4/3,2/3,1/2,,
{8}5/6,7/6,7/8,,3/2,1/2,1/8,,
{8}6/7,8/7,8/1,,4-1[8:1],,,,
{2}5-8[8:1],4-1[4:1],
{8},,8,8,7^2[4:1],,,,
{2}3^8[4:1],6^1[4:1],
{16},,,,8h[16:3],,,1,2,,,,1h[16:3],,,8,
{16}7,,,,8h[16:3],,,1,2,,,,1h[4:1],,,,
{16}7,,7,,6,,,5,4,,,,3,,,4,
{16}5,,,,6,,,5,4,,3,,2b,,2b,,
{8}4/5,2,2/3,5,5/4,2,2/3,5,
{8}5/4,7,7/6,4,5/4,7,7/6,4,
{8}4/5,2,2/3,5,4/5,2,3/2,5,
{8}4/5,7,6/7,4,4/5,7,7/6,4,
{8}5/4,4/3,3/2,3/4,4/5,4/3,3/2,3/4,
{8}5/4,5/6,7/6,6/5,5/4,5/6,7/6,6/5,
{8}5/4,4/3,3/2,3/4,4/5,6/5,7/6,8/7,
{1}1h[4:3],
{16}1,,,1,2,,2,,8,,,8,7,,7,,
{16}1,,,1,2,,2,,8h[8:3],,,,1,,1,,
{16}8,,,8,7,,7,,6,,,6,5,,5,,
{16}4,,,4,3h[4:1],,,,,,,,,,1,8,
{16}7h[8:3],,,,,,8,1,2h[8:3],,,,,,1,8,
{16}7h[4:1],,,,8h[8:3],,,,1,,1,,6h[16:3],,,5,
{16}4,,,,3h[16:3],,,4,5,,,,6h[16:3],,,5,
{8}4,6/5,7/8,6/5,5/4,4/3,1/2,3/4,
{8}5/4,5/6,7/8,6/5,5/4,4/3,2/1,3/4,
{8}5/4,6/5,7/8,5/6,4/5,3/4,1/2,3^8[4:1]/4^7[4:1],,,,,
E
&inote_5=(112.0){1},
{4}2,2,2,2,
{4}7,7,7,7,
{8}1,2,3,,8,7,6,,
{8}2,3,4,,4-1[8:1]/5-8[8:1],,,,
{4},7,,7,
{8},,2,,2,,7/8,7/8,
{4},3,,4,
{4},4,,,
{4}8,3,6,2,
{4}7,1,8,,
{2}2,7,
{8}7,,1/2,1b/2b,
{12}4,
{983}5,,,,,,,,,,,,,,,,,,,,,,,,,,,,,,,,,,,,,,,,,
{12}4,
{983}5h[6:1],,,,,,,,,,,,,,,,,,,,,,,,,,,,,,,,,,,,,,,,,
{8}2,2,
{12}5,
{983}4,,,,,,,,,,,,,,,,,,,,,,,,,,,,,,,,,,,,,,,,,
{12}5,
{983}4h[6:1],,,,,,,,,,,,,,,,,,,,,,,,,,,,,,,,,,,,,,,,,
{8}7,7,
{12}4,
{983}5,,,,,,,,,,,,,,,,,,,,,,,,,,,,,,,,,,,,,,,,,
{12}4,
{983}5,,,,,,,,,,,,,,,,,,,,,,,,,,,,,,,,,,,,,,,,,
{8}4-8[8:1],2,
{8}5-1[8:1],,,,8,
{12}7,
{983}2,,,,,,,,,,,,,,,,,,,,,,,,,,,,,,,,,,,,,,,,,
{12}1,
{983}1,,,,,,,,,,,,,,,,,,,,,,,,,,,,,,,,,,,,,,,,,
{8}8,
{8}4,
{12}3,
{983}6,,,,,,,,,,,,,,,,,,,,,,,,,,,,,,,,,,,,,,,,,
{12}5,
{983}5,,,,,,,,,,,,,,,,,,,,,,,,,,,,,,,,,,,,,,,,,
{24}4,,,1,,
{983}8,,,,,,,,,,,,,,,,,,,,,,,,,,,,,,,,,,,,,,,,,
{12}7,
{983}7,,,,,,,,,,,,,,,,,,,,,,,,,,,,,,,,,,,,,,,,,
{8}5-1[8:1],7,
{8}4-8[8:1],,,,
{12}4,
{983}5,,,,,,,,,,,,,,,,,,,,,,,,,,,,,,,,,,,,,,,,,
{12}4,
{983}5h[6:1],,,,,,,,,,,,,,,,,,,,,,,,,,,,,,,,,,,,,,,,,
{8}2,2,
{12}5,
{983}4,,,,,,,,,,,,,,,,,,,,,,,,,,,,,,,,,,,,,,,,,
{12}5,
{983}4h[6:1],,,,,,,,,,,,,,,,,,,,,,,,,,,,,,,,,,,,,,,,,
{8}7,7,
{12}4,
{983}5,,,,,,,,,,,,,,,,,,,,,,,,,,,,,,,,,,,,,,,,,
{12}4,
{983}5,,,,,,,,,,,,,,,,,,,,,,,,,,,,,,,,,,,,,,,,,
{8}4-8[8:1],2,
{8}5-1[8:1],,,,8,
{12}7,
{983}2,,,,,,,,,,,,,,,,,,,,,,,,,,,,,,,,,,,,,,,,,
{12}1,
{983}1,,,,,,,,,,,,,,,,,,,,,,,,,,,,,,,,,,,,,,,,,
{8}8,
{8}4,
{12}3,
{983}8,,,,,,,,,,,,,,,,,,,,,,,,,,,,,,,,,,,,,,,,,
{8}8-3[8:1],2,6-1[8:1],,4-8[8:1],,
{16}5-1[8:1],,,,,,,,6,,,8,7,,8,,
{16}1,,,2,3,,2,,1,,,8,7,,8,,
{16}1,,,,8/7,,2/1,,3,,,4,5,,4,,
{16}5,,,6,7,,6,,5,,,,4,,,,
{8},,,7,8h[8:3],,,4,
{8}3h[8:3],,,8,7h[4:1],,1h[4:1],,
{8}2h[4:1],,,3,4,3,,8,
{8}7,6,,6,2/7,8,1/7,2/8,
{8}1,8,1/8,,
{24}1,,8,,,
{983}1,,,,,,,,,,,,,,,,,,,,,,,,,,,,,,,,,,,,,,,,,
{12}8,,,
{12}7,
{983}6,,,,,,,,,,,,,,,,,,,,,,,,,,,,,,,,,,,,,,,,,
{12}5,
{983}6,,,,,,,,,,,,,,,,,,,,,,,,,,,,,,,,,,,,,,,,,
{8}6/7,1/2,
{12}2,
{983}3,,,,,,,,,,,,,,,,,,,,,,,,,,,,,,,,,,,,,,,,,
{12}4,
{983}3,,,,,,,,,,,,,,,,,,,,,,,,,,,,,,,,,,,,,,,,,
{8}3/2,7/8,
{8}1,8,8/1,,
{24}1,,8,,,
{983}1,,,,,,,,,,,,,,,,,,,,,,,,,,,,,,,,,,,,,,,,,
{12}8,,,
{12}2,
{983}3,,,,,,,,,,,,,,,,,,,,,,,,,,,,,,,,,,,,,,,,,
{12}4,
{983}3,,,,,,,,,,,,,,,,,,,,,,,,,,,,,,,,,,,,,,,,,
{8}3/2,8/7,
{12}7,
{983}6,,,,,,,,,,,,,,,,,,,,,,,,,,,,,,,,,,,,,,,,,
{12}5,
{983}6,,,,,,,,,,,,,,,,,,,,,,,,,,,,,,,,,,,,,,,,,
{8}7/6,2/1,
{8}8,1,1/8,,
{24}8,,1,,,
{983}8,,,,,,,,,,,,,,,,,,,,,,,,,,,,,,,,,,,,,,,,,
{12}1,,,
{12}7,
{983}6,,,,,,,,,,,,,,,,,,,,,,,,,,,,,,,,,,,,,,,,,
{12}5,
{983}6,,,,,,,,,,,,,,,,,,,,,,,,,,,,,,,,,,,,,,,,,
{8}6/7,1/2,
{12}2,
{983}3,,,,,,,,,,,,,,,,,,,,,,,,,,,,,,,,,,,,,,,,,
{12}4,
{983}3,,,,,,,,,,,,,,,,,,,,,,,,,,,,,,,,,,,,,,,,,
{8}2/3,7/8,
{12}1,
{983}2,,,,,,,,,,,,,,,,,,,,,,,,,,,,,,,,,,,,,,,,,
{12}3/2,
{983}3,,,,,,,,,,,,,,,,,,,,,,,,,,,,,,,,,,,,,,,,,
{12}3/1,
{983}1,,,,,,,,,,,,,,,,,,,,,,,,,,,,,,,,,,,,,,,,,
{24}8,,,8,,
{983}7,,,,,,,,,,,,,,,,,,,,,,,,,,,,,,,,,,,,,,,,,
{12}6/7,
{983}6,,,,,,,,,,,,,,,,,,,,,,,,,,,,,,,,,,,,,,,,,
{12}6/8,
{983}8,,,,,,,,,,,,,,,,,,,,,,,,,,,,,,,,,,,,,,,,,
{8}1,
{1}6h[1:1],
{24}2,,,1,,
{983}3,,,,,,,,,,,,,,,,,,,,,,,,,,,,,,,,,,,,,,,,,
{8}2,1/2,7,
{12}8,
{983}6,,,,,,,,,,,,,,,,,,,,,,,,,,,,,,,,,,,,,,,,,
{8}7,7/8,
{8}3,
{12}4,
{983}2,,,,,,,,,,,,,,,,,,,,,,,,,,,,,,,,,,,,,,,,,
{8}3,4/3,6,
{12}5,
{983}7,,,,,,,,,,,,,,,,,,,,,,,,,,,,,,,,,,,,,,,,,
{8}7/6,6/5,
{8}1,
{12}8,
{983}2,,,,,,,,,,,,,,,,,,,,,,,,,,,,,,,,,,,,,,,,,
{8}1,7/3,8,
{12}1,
{983}7,,,,,,,,,,,,,,,,,,,,,,,,,,,,,,,,,,,,,,,,,
{8}8,6/2,
{4}1,1,,,
{2}8h[2:1],1h[2:1],
{2}8h[2:1],
{4}7,
{989}6,,,,,,,,,,,,,,,,,,,,,,,,,,,,,,,,,,,,,,,,,,,,,,,,,,,,,,,,,,,,,,,,,,,,,,,,,,,,,,,,,,,,,,,,,,,,,,,,,,,,,,,,,,,,,,,,,,,,,,,,,,,,,,,,,,,,,,,,,,,,,,,,,,,,,,,,,,,,,,,,,,,,,,,,,,,,,,,,,,,,,,,,,,,,,,,,,,,,,,,,,,,,,,
{983}6,,,,,,,,,,,,,,,,,,,,,,,,,,,,,,,,,,,,,,,,,
{8}5,5,
{989}4,,,,,,,,,,,,,,,,,,,,,,,,,,,,,,,,,,,,,,,,,,,,,,,,,,,,,,,,,,,,,,,,,,,,,,,,,,,,,,,,,,,,,,,,,,,,,,,,,,,,,,,,,,,,,,,,,,,,,,,,,,,,,,,,,,,,,,,,,,,,,,,,,,,,,,,,,,,,,,,,,,,,,,,,,,,,,,,,,,,,,,,,,,,,,,,,,,,,,,,,,,,,,,
{983}4,,,,,,,,,,,,,,,,,,,,,,,,,,,,,,,,,,,,,,,,,
{8}3,3,
{989}2,,,,,,,,,,,,,,,,,,,,,,,,,,,,,,,,,,,,,,,,,,,,,,,,,,,,,,,,,,,,,,,,,,,,,,,,,,,,,,,,,,,,,,,,,,,,,,,,,,,,,,,,,,,,,,,,,,,,,,,,,,,,,,,,,,,,,,,,,,,,,,,,,,,,,,,,,,,,,,,,,,,,,,,,,,,,,,,,,,,,,,,,,,,,,,,,,,,,,,,,,,,,,,
{983}2,,,,,,,,,,,,,,,,,,,,,,,,,,,,,,,,,,,,,,,,,
{8}1,1,7^4[8:1]/8^3[8:1],8/7,,,1^6[8:1]/2^5[8:1],2/1,
{8},,7^4[8:1]/8^3[8:1],8/7,,,1^6[8:1]/2^5[8:1],2/1,
{8},,4^1[8:1]/5^8[8:1],5/4,,,8b/1b,7b/2b,
E
