&title=源平大戦絵巻テーマソング
&artist=新小田夢童 & キラ★ロッソ
&first=0
&des=
&wholebpm=190
&demo_seek=46
&demo_len=14
&des_4=譜面-100号
&des_5=ニャイン
&des_6=舞舞10年ズ (チャンとはっぴー)
&lv_1=3
&lv_2=6
&lv_3=8
&lv_4=10+
&lv_5=12+
&lv_6=14
&inote_1=(190.0){1},,,
{1}7,
{1}6,
{1}5,
{1}4,
{1}3,
{1}2,
{1}1h[2:1],
{1}1h[2:1],
{2}8,8,
{196}8,,,,,,,,,,,,,,,,,,,,,,,,,,,,,,,,,,,,,,,,,,,,,,,,,,,,,,,,,,,,,,,,,,,,,,,,,,,,,,,,,,,,,,,,,,,,,,,,,8,,,,,,,,,,,,,,,,,,,,,,,,,,,,,,,,,,,,,,,,,,,,,,,,,,,,,,,,,,,,,,,,,,,,,,,,,,,,,,,,,,,,,,,,,,,,,,,,,,,
{1}7,
{1}8,
{1}1,
{1}2,
{1}2,
{1}1,
{1}8,
{1}7,
{1}6,
{1}6,
{1}7,
{1}7,
{1}8,
{1}8,
{1}1h[2:1],
{1}1h[2:1],
{1}2,
{1}2,
{1}1,
{1}1,
{1}8,
{1}8,
{1}7/8,
{1}1/2,
{1}8b,
{2},8-5[2:1],{1},
{2},1-4[2:1],{1},
{2},3-6[2:1],{1},
{1}7,
{1}8,
{2}1,1-4[2:1],{1},
{2},3-6[2:1],{1},
{2},7-3[2:1],{1},
{1}2,
{1}1,
{2}8,8-5[2:1],{1},
{2},6-3[2:1],{1},
{2},2-6[2:1],{1},
{1}7,
{1}8,
{2}1,1-5[2:1],{1},
{2},8-4[2:1],{1},
{2},1-5[2:1],{1},
{1}6,
{1}7,
{1}8,
{4}8h[4:7]/1h[4:7],,,{1},,
E
&inote_2=(190.0){1},,,
{2}8,7,
{2}6,5,
{2}4,3,
{2}2,1,
{2}2,3,
{2}4,5,
{1}6h[2:1],
{1}7h[2:1],
{2}8,8,
{4}1,1,1b,,
{2}2,1,
{1}2,
{2}7,8,
{1}7,
{2}2,3,
{1}4,
{2}7,6,
{1}5,
{2}2/7,7,
{2}8,1,
{2}1/2,3,
{2}4,5,
{2}6/3,6,
{2}5,6,
{1}8h[2:1]/7h[2:1],
{2}8,1,
{2}2/7,2,
{2}1,8,
{2}7/8,6,
{2}5,4,
{2}6/3,5,
{2}4,3,
{2}1/2,8,
{4}1/2,,2,2,
{2}2b,8,
{4}7,,7,7,
{1}7-2[2:1],
{4},,6,6,
{1}6-3[2:1],
{4},,7,7,
{1}7-2[2:1],
{4}2,,2,2,
{1}2h[2:1],
{2}3,
{625}2,,,,,,,,,,,,,,,,,,,,,,,,,,,,,,,,,,,,,,,,,,,,,,,,,,,,,,,,,,,,,,,,,,,,,,,,,,,,,,,,,,,,,,,,,,,,,,,,,,,,,,,,,,,,,,,,,,,,,,,,,,,,,,,,,,,,,,,,,,,,,,,,,,,,,,,,,
{721}2,,,,,,,,,,,,,,,,,,,,,,,,,,,,,,,,,,,,,,,,,,,,,,,,,,,,,,,,,,,,,,,,,,,,,,,,,,,,,,,,,,,,,,,,,,,,,,,,,,,,,,,,,,,,,,,,,,,,,,,,,,,,,,,,,,,,,,,,,,,,,,,,,,,,,,,,,,,,,,,,,,,,,,,,,,,,,,,,,,,,,,,,
{1}2-7[2:1],
{4},,3,3,
{1}3-6[2:1],
{4},,2,2,
{1}2-7[2:1],
{4}7,,7,7,
{1}7h[2:1]/8h[2:1],
{4}1/2,,3,2,
{1}1-4[2:1],
{4},,6,7,
{1}8-5[2:1],
{4},,3,2,
{1}1-4[2:1],
{4}5,,5,5/6,
{1}5h[2:1]/6h[2:1],
{4}3/4,,1,8,
{1}7-4[2:1],
{4},,8,1,
{1}2-5[2:1],
{4},,2,1,
{1}8-3[2:1],
{2}6,6,
{2}7,7,
{2}8,2/7,
{4}1h[4:7]/8h[4:7],,,{1},,
E
&inote_3=(190.0){1},1,
{4}2,,3,2,
{4}1h[4:5],8,,8,
{4},7,,6,
{4}5h[4:5],4,,4,
{4},3,,3,
{4}4h[4:3],5,,5,
{8}6,,,1,,,8,,
{1}7h[2000:2001],
{1}6h[4:3],
{1}6-1[2:1],,
{4},7,7,3,
{4}3,2,2,6/3,
{4},6,6,2,
{4}2,3,3,2/7,
{4},5,5,2,
{4}2,7,7,1/8,
{4},8,6,7,
{4}2,4,3,1/5,
{4},6,5,6,
{4}5,4,4,4/5,
{4}3,4,3,4,
{4}2,1,8,8/1,
{4}7,6,7h[2:1],,
{4},8,1,2,
{8}3,,2,2,2,,,,
{4}8,8,4,4,
{4}1h[4:7],5,,5,
{4},5,,5b,
{4}7h[4:7],2,,2,
{4},2,,2b,
{4}3h[4:3],2,,2b,
{4}7h[4:3],8,,8b,
{4}1h[4:3],8,,8b,
{4}7,7/8,1/8,2^7[2:1],{1},
{4},,8b,7b,
{4}6h[4:5],2,,2,
{4},3,7b,6b,
{4}1h[4:5],8,,8,
{4},8,7b,6b,
{4}5h[4:5],4,,4,
{4},3,2,3,
{4}4h[4:3],5,,5,
{4}6h[4:3],3,,3,
{4}2h[4:5],7,,7,
{4},6-1[4:1],,,
{4}7h[4:5],2,,2,
{4},3-8[5000:1283],,,
{4}1h[4:3],7,,7,
{4}8h[4:3],2,,2,
{4}2h[4:3],3,,3,
{4}3h[4:3],4,,4,
{4}5,6,7,8,
{4}1,2,1,2b/7b,
{4}8,7,6,5,
{4}4,3,2,1b/8b,
{4}2,5,7,3,
{8}6/3,,,7/2,,,1/8,,
{4}7h[4:1],6,8,1,
{4}2h[4:1],3,2,1,
{4}8h[2000:513],7,8,7,
{4}6,5,4,4b/5b,
{4}4h[4:1],3,2,1,
{4}8,7,8,1b/8b,
{4}2h[4:1],3,4,3,
{8}2/1,,,1/8,,,7/8,,
{4}7h[1:1],8,,8,
{4}1h[2:1],,,2-6[2:1],,,,
E
&inote_4=(190.0){1},,
{4},,6,7,
{1}8h[1:2],
{4},,3,2,
{1}1h[1:2],
{4},,7,6,
{1}5h[1:1],
{8}2h[8:3],,,6h[8:3],,,4,,
{1}4^1[2:1]/8^5[2:1],
{1}4^7[2:1]/8^3[2:1],
{1}5h[4:7],
{4}1,1,1,1b,
{8}2,3-6[8:3],3,,,,,,
{8}7,,6,5,4,,5/2,,
{8}7,6-3[8:3],6,,,,,,
{8}2,,3,4,5,,4/7,,
{8}2,3,3h[4:3],,4,4,,,
{8}5,4,3,2,1-6[4:1],,,,
{8}7,6,6h[4:3],,5,5,,,
{8}4,5,6,7,8-3[4:1],,,,
{8}1,,6,6,8,,3,3,
{8}1,8,7,8,1,8,7,,
{8}8,,4,4,1,,5,5,
{8}8,1,2,1,8,1,2,,
{8}7,,6,6,2,,3,3,
{8}6,5,4,5,6,5,4,3,
{8}2,,2-5[4:1],2,,,,7,
{8},7,7-4[4:1],7,,,,,
{4}1/2,7,7/8,2,
{2}1^6[8:1],2^7[8:1],
{4}7/8,2,1/2,7,
{2}8^3[8:1],7^2[8:1],
{4}3/4,6,5/6,3,
{8}3,5,4,6,5,4,3,,
{8}2,2,2-6[4:1],2,,,,7,
{8},7,7-3[4:1],7,,,,,{1},
{4},,6b/8,2b/8,
{4}8/6b,4/3,3/1,5/6,
{4}6/8,4/3,1/3b,1/7b,
{4}1/3b,5/6,6/8,3/4,
{4}3/1,6/5,8/6b,8/2b,
{4}6b/8,4/3,3/1,5/6,
{8}8/1,,,2/7,,,6/3,,
{4}4/5,3,4,5,
{4}6,5,3b/4,7b/6,
{4}1/2b,6/4,6/7,3/5,
{4}2/3,6/4,6b/5,2b/3,
{4}7b/8,5/3,3/2,4/6,
{4}7/6,3/5,2b/3,8/7b,
{4}5/4b,3,5/4,6,
{8}1-6[8:1],,,2-5[8:1],,,7-3[4:1],,
{4},,,2-6[4:1],
{4},,4/8b,3/7b,
{4}6b/2h[4:5],4,6,5,
{4}3,4,1b/5,2b/6,
{4}3b/7h[4:5],5,3,4,
{4}6,5,4/8b,2/6b,
{4}4b/8h[4:3],5,3,6,
{8}1/2,,7,7/6,,3,3/4,,
{4}4,5,6,7,
{4}5,4,3,2,
{8}1,1,7,6,3,2,3,4,
{8}6,5,4,5,6,,8b/1b,,
{8}8,8,2,3,6,7,6,5,
{8}3,4,5,4,3,,1b/8b,,
{8}7,7,2,5,7,6,4,3,
{8}2,2,3,5,6,6,5,3,
{8}2,2,7,4,2,3,5,6,
{8}7,7,6,4,3,3,4,6,
{1}7h[1:4],,,,,
E
&inote_5=(190.0){1},,
{4},,,7-2[8:1],
{4},1-4[8:1],,3-6[4:3],
{4},,,1-6[8:1],
{4},6-3[8:1],,1-4[4:3],{1},
{4}7h[1000:1499],,,1-5[2:1],
{4},,,6-3[2:1]/7-2[2:1],
{4},,,5-2[4:1]/6-1[4:1],{1},
{8}5,6,7,8,1,2,3,4,
{16}5,4,3,2,1,8,7,6,5,4,3,2,1,8,7,6,
{4}5,3h[4:1],2h[1477:366],1h[4:5],
{2}8-3[4:1],4-7[4:1],
{4},8h[1250:313],7h[4:1],6-3[8:1],
{4}2-7[8:1],1-4[8:1],,2b/7b,
{4}6h[2:1],4,3h[2:1],1,
{4}8h[2:1],6,5h[2:1],7,
{4}3h[4:1],2h[4:1],8h[4:1],6h[4:1],
{8}5,4,3,2,3,4,5,6,
{8}8,8h[4:1],,1,2,1,,8,
{8}7,6,7,8,1-4[4:1],1,,,
{8}8,8h[4:1],,7,6,7,,3,
{8}
{417}4,,,,,,,,,,,,,,,,,,,,,,,,,,,,,,,,,,,,,,,,,,,,,,,,,,,,
{8}5,4,3-6[4:1],3,,,,
{8},5,6,5,5h[4:1],,,5/2,
{8},8/7,,1,2,3,2,,
{8}8,,7,6,7,,1,2h[4:1],
{8},3,4,5,4,,7,7,
{8}1,1h[4:1],,8,7,8,,1,
{8}2,3,2,1,8-5[4:1],8,,,
{8}1,1h[4:1],,2,3,2,,6,
{8}5,4,5,6-3[4:1],6,,,,
{8},4,3,4,4h[4:1],,,4/7,
{8},1/2,,8,7,6,7,,
{8}1,1,2,3,2b,,8,7h[4:1],
{8},6,5,4,5,,2b,,
{8}5,6,7,8,1,2,3,4,
{16}5,4,3,2,1,8,7,6,5,4,3,2,1,8,7,6,
{2}5-2[8:1],4-7[8:1],
{2}6-1[8:1],3-8[8:1],
{2}1-6[8:1],8-3[8:1],
{2}2-5[8:1],7-4[8:1],
{4}5-1[8:1],3-6[8:1],4-8[8:1],7-2[8:1],
{4}1-4[8:1],7-2[8:1],8-5[8:1],,
{2}1-6[8:1]/2-5[8:1],7-4[8:1]/8-3[8:1],
{2}1^6[8:1]/2^5[8:1],7^4[8:1]/8^3[8:1],
{4}2/8h[1250:313],6,4/2h[4:1],8,
{4}8/6h[4:1],4,1b/3h[4:1],5b,
{4}7/5h[4:1],3,2/4h[4:1],6,
{4}2/8h[1250:313],6,7b/1h[1250:313],3b,
{8}7h[2000:501],5,6b,,2h[1250:313],4,3b,,
{2}7-2[1000:123],1-4[8:1],
{1}4-1[2500:1251]/5-8[2500:1251],
{1}1^4[2500:1251]/8^5[2500:1251],
{941},,,,,,,,,,,,,,,,,,,,,,,,,,,,,,,,,,,,,,,,,,,,,,,,,,,,,,,,,,,,,,,,,,,,,,,,,,,,,,,,,,,,,,,,,,,,,,,,,,,,,,,,,,,,,,,,,,,,,,
{313}3,,,,,,,,,,,,,,,,,,,,,,,,,,,,,,,,,,,,,,,
{941}4,,,,,,,,,,,,,,,,,,,,,,,,,,,,,,,,,,,,,,,,,,,,,,,,,,,,,,,,,,,,,,,,,,,,,,,,,,,,,,,,,,,,,,,,,,,,,,,,,,,,,,,,,,,,,,,,,,,,,,
{313}3,,,,,,,,,,,,,,,,,,,,,,,,,,,,,,,,,,,,,,,
{8}8,7,6,5,
{8}1,2,5,6,3,4,3b/2b,,
{8},6,5,6,1,
{941}2,,,,,,,,,,,,,,,,,,,,,,,,,,,,,,,,,,,,,,,,,,,,,,,,,,,,,,,,,,,,,,,,,,,,,,,,,,,,,,,,,,,,,,,,,,,,,,,,,,,,,,,,,,,,,,,,,,,,,,
{313}3,,,,,,,,,,,,,,,,,,,,,,,,,,,,,,,,,,,,,,,
{8}4,
{8}8,7,
{941}4,,,,,,,,,,,,,,,,,,,,,,,,,,,,,,,,,,,,,,,,,,,,,,,,,,,,,,,,,,,,,,,,,,,,,,,,,,,,,,,,,,,,,,,,,,,,,,,,,,,,,,,,,,,,,,,,,,,,,,
{313}3,,,,,,,,,,,,,,,,,,,,,,,,,,,,,,,,,,,,,,,
{8}6,5,6b/7b,,
{8},5,6,7,3,4,2,7,
{8}1,8,7,6,7,8,1b/8b,,
{8},4,3,2,6,5,7,2,
{8}8,
{941}1,,,,,,,,,,,,,,,,,,,,,,,,,,,,,,,,,,,,,,,,,,,,,,,,,,,,,,,,,,,,,,,,,,,,,,,,,,,,,,,,,,,,,,,,,,,,,,,,,,,,,,,,,,,,,,,,,,,,,,
{8}2,3,
{313}2,,,,,,,,,,,,,,,,,,,,,,,,,,,,,,,,,,,,,,,
{8}1,1b/8b,,
{8}1,5,3,7,8,4,6,2,
{8}1,8,7,8,1,2,1b,6,
{8}5,4,7,6,5,1,2,1,
{8}3,4,5,6,5,4,3b,4,
{8}2,3,4,1,2,3,8,7,
{8}6,7,1,2,3,2,3b,2,
{8}8,4,6,2,3,4,5,8,
{16}1,2,3,4,5,6,7,8,1,2,3,4,5-1[1:2],6,7,8,{1},,,
E
&inote_6=(190.0){1},
{8}5,6,7,8,1,2,3,4,
{16}5,4,3,2,1,8,7,6,5,4,3,2,1,8,7,6,
{4}5V31[4:1],1-7[8:1],6,6,
{4}8,3h[4:1]/8V63[4:1],,,
{2}7h[2:1]/2-5[8:1],6-3[8:1],
{4}7q6[4:1],,,3V58[2:1],
{4}3h[2:1],,,7h[2:1]/2-4[8:1],
{4},6qq3[2:1],8,8,
{8}8,,3,3,3,3,3h[8:5],4,
{4}4h[8:3],,3p7[8:1]/4q8[8:1],3/4,
{8}2b,1,3,8,4,7,5,6,
{16}3,4,3,4,2,5,2,5,1,6,1,6,8,7,8,7,
{8}2h[4:1],1,8,,1/6h[4:1],8,7-3[8:1],,
{4}7/6-1[8:1],6/4z8[8:1],4,7b,
{8}3h[4:1],4,5,,4/7h[4:1],5,6-2[8:1],,
{4}6/7-4[8:1],7/1s5[8:1],1,8b,
{8}6h[4:1],5,4,,5/2h[4:1],4,3-7[8:1],,
{16}3/2-5[8:1],,,,2/8V64[8:1],,,,8,,3b,2b,1b,,,,
{8}7h[4:1],2,3,,8/4h[4:1],1,2<4[4:3],,
{8}4b,3b,2b,1b,8b,7b,6b,,
{8}8/1q5[8:1],2,1/3,,6q2[8:1],7,6/8-3[8:1],,
{4}8-5[8:1],8w4[8:1],8,1b,
{8}8/7p3[8:1],6,5/7,,2p6[8:1],1,2/8-3[8:1],,
{4}8-5[8:1],8z4[4:1],,,
{8}1/3-8[8:1],8,7,6,5h[4:5],,6-3[8:1],,
{4}6,6-1[8:1],6,3,
{8}2-5[8:1]/6-1[8:1],,2<6[8:1]/6>2[8:1],,2/6,,,3/7,
{8},2,1-5[8:1]/8-6[8:1],,1-3[8:1]/8-4[8:1],,1/8,,
{8}5/6q2[8:1],7,6/8,,3q7[8:1],4,3/5-2[8:1],,
{4}5/8-4[8:1],8w4[8:1],8,1b,
{8}1/8p4[8:1],7,6/8,,3p7[8:1],2,3/1-4[8:1],,
{4}1/6-2[8:1],6/5<1[4:1]*>1[4:1],,,
{8}1/3-8[8:1],8,7,6,5,,6V42[8:1]*-3[8:1],,
{4}6,6-1[8:1]*V82[8:1],6,6,
{8}3-8[8:1]/7-4[8:1],,3<7[8:1]/7>3[8:1],,3/7,,,2/6,
{8},3,4v1[8:1]/5v8[8:1],,,,1-4[8:1]/6^4[8:1],,
{4}1/6,8-5[8:1]*V26[8:1],,2V48[4:1],
{4}8-6[8:1],,1b,3-8[8:1],
{4}3/6-1[8:1],6/2-5[8:1],2/8-5[8:1],8/4-1[8:1]*-2[8:1],
{4}4-6[8:1]*-7[8:1],4-8[8:1]*w8[8:1],,2b/6b-1[8:1],
{4}6/3-8[8:1],3/7-4[8:1],7/1-4[8:1],1/5-7[8:1]*-8[8:1],
{4}5-2[8:1]*-3[8:1],5-1[8:1]*w1[8:1],,7b/3b-6[8:1],
{4}3/7-2[8:1],7/3-6[8:1],3/1-6[8:1],1/5^2[8:1],
{8}6,7-3[8:1],,2,1-5[8:1],,1,,
{8}8b>4[2:1],1b^4[8:3],2b^4[4:1],3b,7b,8b>4[2:1],1b^4[8:3],2b^4[4:1],
{8}6b,7b,8b,1b,2b/7b,,4/5,,
{16}6,,6,5,7,,4/8,,3,,3,4,2,,1/5,,
{16}6,,6,5,7-4[8:1],,4/8,,7/3-8[8:1],,2,,3/5,,6,,
{16}2/8,,3,4,2,,1/5,,6,,6,5,7,,4/8,,
{16}3,,3,4,2-5[8:1],,1/5,,2/6-1[8:1],,7,,4/6,,3,,
{16}1/7,,6,5,7,,4/8,,3,,3,4,2^5[8:1],,1,,
{8}8,7^2[8:1],6,5,4^7[8:1],3,2,1,
{8}8,7,1,2,5-1[8:1],6,5/7,8,
{16}1/8,,2,,3/5,,7,8,1,2,3,4,1/5,,,,
{16}6,,7/8,,2,1,2,,3,,4/6,,7-3[8:1],,8,,
{8}7/1-5[8:1],2,1/5,6,1v4[8:1]/7v4[8:1],,1b/7b,,
{16}3,,1/2,,7,8,7,,6,,3/5,,2-6[8:1],,1,,
{8}2/8-4[8:1],7,4/8,3,2v5[8:1]/8v5[8:1],,2b/8b,,
{16}7,,5/6,,4,3,2,,1/7,,1/7,,2-6[8:1],3,4,,
{16}2/8^5[8:1],,7,,8/4^1[8:1],,3,,4,,7b,6b,5b,,,,
{16}2,,3/4,,5,6,7,,2/8,,2/8,,7-3[8:1],6,5,,
{8}7/1-4[8:1],2,1/5-8[8:1],6,5/1v4[8:1]*v6[8:1],2,1,,
{16}3/7,,4/6,,3,5,3,5,1,,7,,6-2[8:1],5,6,,
{16}3-8[8:1],,3,,4,,4,,
{641}5v2[8:1]*v8[8:1],,,,,,,,,,,,,,,,,,,,
{639}6,,,,,,,,,,,,,,,,,,,,7,,,,,,,,,,,,,,,,,,,,
{641}8,,,,,,,,,,,,,,,,,,,,1,,,,,,,,,,,,,,,,,,,,
{639}2,,,,,,,,,,,,,,,,,,,,3,,,,,,,,,,,,,,,,,,,,
{641}4,,,,,,,,,,,,,,,,,,,,
{8}5b,,
{16}1,,2/8,,6,4,6,4,8,,8,,3-7[8:1],4,3,,
{16}6-1[8:1],,6,,5,,5,,
{641}4v1[8:1]*v7[8:1],,,,,,,,,,,,,,,,,,,,
{639}3,,,,,,,,,,,,,,,,,,,,2,,,,,,,,,,,,,,,,,,,,
{641}1,,,,,,,,,,,,,,,,,,,,8,,,,,,,,,,,,,,,,,,,,
{639}7,,,,,,,,,,,,,,,,,,,,6,,,,,,,,,,,,,,,,,,,,
{641}5,,,,,,,,,,,,,,,,,,,,
{8}4b,,
{8}8-4[8:1],7,8/2-6[8:1],3,2/5-8[8:1],4,5/3-6[8:1],2,
{8}3/8^5[8:1],7,8/1^4[8:1],2,1/5-2[8:1]*-8[8:1],6,5,,
{16}2b,8,4,6,2b,8,1,7,8b,6,2,7,3b,1,4,6,
{12}6b,
{995}5,,,,,,,,,,,,,,,,,,,,,,,,,,,,,,,,,,,,,,,,,,,,,,,,,,,,,,,,,,,,,,,,,,,,,,,,,,,,,,,,,,,
{12}7,3,
{995}4,,,,,,,,,,,,,,,,,,,,,,,,,,,,,,,,,,,,,,,,,,,,,,,,,,,,,,,,,,,,,,,,,,,,,,,,,,,,,,,,,,,
{12}2,
{641}5,,,,,,,,,,,,,,,,,,,,
{639}6,,,,,,,,,,,,,,,,,,,,7,,,,,,,,,,,,,,,,,,,,
{641}8,,,,,,,,,,,,,,,,,,,,1,,,,,,,,,,,,,,,,,,,,
{639}2,,,,,,,,,,,,,,,,,,,,3,,,,,,,,,,,,,,,,,,,,
{641}4,,,,,,,,,,,,,,,,,,,,
{4}5b-1[1:2],
{1}5h[1:4],,,,
{1}4b,
E
