&title=教えて!! 魔法のLyric
&artist=ちょむP
&wholebpm=180
&demo_seek=72.5
&demo_len=11.5
&lv_1=2
&lv_2=7
&lv_3=8
&lv_4=9+
&lv_5=12
&des_4=maimai TEAM
&des_5=maimai TEAM
&inote_1=(180.0){1},,
{1}7,
{1}8,
{1}1,
{2}2,2,
{1}3,
{1}4,
{1}5,
{2}6,6,
{1}6,
{1}6,
{1}7,
{2}7,7,
{1}7,
{1}8,
{1}8,
{2}1,1,
{1}1,
{1}2,
{1}1,
{1}8,
{2}7,7,{1},
{2}8,8,{1},
{2}1,1,{1},
{2}2,2,{1},
{2}2,2,{1},
{2}1,1,{1},
{2}8,8,{1},
{1}7-2[2:1],,
{2}3,3,
{1}3h[2:1],
{2}2,2,
{1}2h[2:1],
{4},,,1/8,
{4},,,1/8,
{4},,,1/8,{1},
{2}7,7,
{1}7h[2:1],
{2}6,6,
{1}6h[2:1],
{4},,,5/4,
{4},,,4/5,
{4},,,3,
{4},2,,1,
{4},1b,,,
{2}8,7,
{1}7h[2:1],
{2}1,2,
{1}2h[2:1],
{1}2,
{1}2,
{1}1-5[2:1],,
{2}5,6,
{1}5h[2:1],
{2}4,3,
{1}4h[2:1],
{1}3,
{1}2,
{1}1-4[2:1],,
{1}5b,
{1}6,
{1}7,
{2}7,7,
E
&inote_2=(180.0){1},,
{4}1/8,,,7,
{4}8,,,7,
{4}8,,,8/1,
{4}1/8,,,8/1,
{4}7/2,,,2,
{4}3,,,6,
{4}7,,,7,
{4}7,6/3,6/3,,
{2}2,4,
{2}6,6,
{2}5,4,
{4}3,,3,3,
{1}7-2[2:1],
{4},,4,5,
{4}1,2,3,4,
{4}5,6,7,8,
{1}1-4[2:1],
{4}3,3,2,,
{1}6h[4:3],
{4}2,1,2b,,
{4}4,4,3,,
{4}4,4,3,,
{4}2,2,1,1,
{4}2,2,1,,
{4}4,5,4,,
{4}4,5,4,,
{4}4,5,5/4,,
{4}7/2,7/2,6/1,,
{4}4,4,3,,
{4}4,4,3,,
{4}2,2,1,1,
{4}2,2,1,,
{4}1,8,1,,
{4}1,8,1,,
{4}1,8,8/1,,
{4}7/2,7/2,6b/1b,,
{1}1h[2:1]/6h[2:1],
{1}3h[2:1]/8h[2:1],
{2}1h[4:1],8h[4:1],
{2}5h[4:1]/4h[4:1],3/6,
{2}8/4,5,
{2}8,3/7,
{4}5,4,5,4,
{4}2,2,2,,
{4}6,7,6,,
{4}3,2,3,,
{1}2h[2:1]/3h[2:1],
{4}2,2,,,
{1}6h[2:1],
{4}3,2,3,,
{4}5/4,6/3,7/2,,
{1}6h[2:1]/3h[2:1],
{1}1b/8b,
{2}5,8,
{2}4,1h[4:1],
{4}7,7,3-6[4:1],,
{2},7,
{4}2,7,2,7,
{4}2,1,6/2,,
{4}8,6,4,2,
{1}1-4[4:1],
{2}5,8,
{2}4,1h[4:1],
{4}7,7,3-6[4:1],,
{2},7,
{4}1,2,1,,
{1}2-7[4:1],
{1}6h[2:1]/3h[2:1],
{4}2,3,2,,
{4}6h[2:1],,,5-1[10000:4999],
{4},,,3/7,
{4},,,6-3[2:1],{1},
{1}2b/6,
E
&inote_3=(180.0){1},7-3[2:1],
{4}2,,,8,
{4}7,,,5,
{4}4,,,2,
{4}1,,5,6,
{4}7,,,1,
{4}2,,,4,
{4}5,,,7,
{4}8,8,1/8,,
{2}7h[294:73],6h[4:1],
{2}5,4,
{2}2h[4:1],3h[4:1],
{2}4,5,
{2}7h[4:1],6h[4:1],
{4}5,4,3,,
{2}2h[4:1],3h[400:101],
{4}4,5,6,,
{2}4h[4:1],3h[4:1],
{4}2,1,8,,
{2}5h[4:1],6h[4:1],
{4}7,8,1b,,
{4},1,8,7,
{4},7,6,5,
{4},8,1,2,
{4},2,3,4,
{4},4,3,2,
{4},2,1,8,
{4},5,6,7,
{4},7,8,1,
{4},1,8,7/1,
{4},6,5,4/6,
{4},8,1,2/8,
{4},3,4,5/3,
{4},1/7,8,7/1,
{4},6/4,5,4/6,
{4},8/2,1,2/8,
{4},3/5,4,5/3,
{4}2h[4:3],,1,8,
{4}7h[4:3],,8,1,
{4}2h[4:3],,1,8,
{4}7h[4:3],,8,1,
{4}8h[4:1],3,2,,
{4}1h[4:1],6,7,,
{4}6,6-2[4:1],,,
{4}3,3-7[4:1],,,
{4}7,8,8h[4:1]/1h[4:1],,
{4}2,1,1h[4:1]/7h[4:1],,
{4}6,7,2h[4:1]/8h[4:1],,
{4}3,2,8h[4:1]/1h[4:1],,
{8},,6,,7,8,8,,
{8},,3,,2,1,1,,
{4},8/6,7,6/8,
{8}6-3[4:1],,,,,,2,2b,
{4},,1/3,8/2,
{4}2-5[5000:1237],,,6,
{4}7-4[5000:1237],,,3,
{4}4,5,6,7,
{577}8h[4:1],,,,,,,,,,,,,,,,,,,,,,,,,,,,,,,,,,,,,,,,,,,,,,,,,,,,,,,,,,,,,,,,,,,,,,,,,,,,,,,,,,,,,,,,,,,,,,,,,,,,,,,,,,,,,,,,,,,,,,,,,,,,,,,,,,,,,,,,,,,,,,,,,,,,,,,,,,,,,,,,,,,,,,,,,,,,,,,,,,,,,,,,,,,,,,,,,,,,,,,,,,,,,,,,,,,,,,,,,,,,,,,,,,,,,,,,,,,,,,,,,,,,,,,,,,,,,,,,,,,,,,,,,,,,,,,,,,,,,,,,,,,,,,,8h[673:170],,,,,,,,,,,,,,,,,,,,,,,,,,,,,,,,,,,,,,,,,,,,,,,,,,,,,,,,,,,,,,,,,,,,,,,,,,,,,,,,,,,,,,,,,,,,,,,,,,,,,,,,,,,,,,,,,,,,,,,,,,,,,,,,,,,,,,,,,,,,,,,,,,,,,,,,,,,,,,,,,,,,,,,,,,,,,,,,,,,,,,,,,,,,,,,,,,,,,,,,,,,,,,,,,,,,,,,,,,,,,,,,,,,,,,,,,,,,,,,,,,,,,,,,,,,,,,,,,,,,,,,,,,,,,,,,,,,,,,,,,,,,,,,,,,
{4}1,1,1/3,,
{4}8,8,6/8,,
{8}3,,2,,8h[4:1],,,8,
{8},1,1,,8/2,,1/7,,
{4}2-5[5000:1237],,,6,
{4}7-4[5000:1237],,,3,
{4}5,4,3/1,2/8,
{4}8/1h[4:3],7,6,,
{4}4/6,5/7,8/6,,
{4}5/3,4/2,1/3,,
{8}7/5,,8/6,,1/7,,1,1,
{8},8h[1668:1043],2,,2,,2,,
{8}7h[1923:959],,,,,,1,8h[8:7],{1},
{4},1/7,2/8,7/1,
{4},2,7,1,
{1}8b,
E
&inote_4=(180.0){1},,
{4}8/1,,,8/2,
{8}7/1,,,,,8/2,,7h[4:1]/1h[4:1],
{8},,,,,8/1,,7h[4:1]/2h[4:1],
{4},,1,8,
{4}2/7,,,2/6,
{8}7/3,,,,,2/6,,7h[4:1]/3h[4:1],
{8},,,,,6/3,,5/4,
{4},4/5,7/2,,
{4}2,4,6,7/4,
{4}6,5,3,3,
{4}6,5,4,5/3,
{4}2,1,2,1,
{4}2/6,3^8[4:1]/7^4[4:1],,,
{4},1/8,1,8,
{4}1h[4:1],2h[4:1],3h[4:1],4h[4:1],
{4}5h[4:1],6h[4:1],7h[4:1],8-5[2:1],
{8},,,,,,,3,
{8},4,3,,6/2,,,,
{8}2,,2,1,,2/1,,1,
{8},5,4,,3/6,,,,
{4}4/5,4/5,5/3,5/4,
{4}5/4,4/5,5/3,4/5,
{4}5/2,5/2,4/2,2/4,
{4}2/6,6/2,2/5,2/5,
{8}1h[4:1],,8,,1,8,1,,
{8}8h[4:1],,1,,8,1,8,,
{769},,
{865}2h[1827:452],,,,,,,,,,,,,,,,,,,,,,,,,,,,,,,,,,,,,,,,,,,,,,,,,,,,,,,,,,,,,,,,,,,,,,,,,,,,,,,,,,,,,,,,,,,,,,,,,,,,,,,,,,,,,,,,,,,,,,,,,,,,,,,,,,,,,,,,,,,,,,,,,,,,,,,,,,,,,,,,,,,,,,,,,,,,,,,,,,,,,,,,,,,,,,,,,,,,,,,,,,,,,,,,,,,,,,
{4}7,8h[1827:452]/1h[1827:452],,
{4}7,1/8,2/6,,
{4}4/5,4/5,6/3,5/4,
{4}5/4,5/4,6/3,4/5,
{4}3/5h[4:1],3,6/4h[4:1],6,
{4}2/5h[4:1],2,7/4h[4:1],7,
{8}1h[4:1],,8,,1,8,1,,
{8}8h[4:1],,1,,7,2,7,,
{769},,
{865}2h[1827:452],,,,,,,,,,,,,,,,,,,,,,,,,,,,,,,,,,,,,,,,,,,,,,,,,,,,,,,,,,,,,,,,,,,,,,,,,,,,,,,,,,,,,,,,,,,,,,,,,,,,,,,,,,,,,,,,,,,,,,,,,,,,,,,,,,,,,,,,,,,,,,,,,,,,,,,,,,,,,,,,,,,,,,,,,,,,,,,,,,,,,,,,,,,,,,,,,,,,,,,,,,,,,,,,,,,,,,
{4}7,1h[1827:452]/8h[1827:452],,
{4}7,8/1,2/6,,
{1}6h[2:1]/2h[2:1],
{1}3h[2:1]/7h[2:1],
{2}1h[4:1],8h[4:1],
{2}5h[4:1]/4h[4:1],7/2,
{2}7h[714:179]/3h[714:179],6/7,
{2}1h[714:179]/3h[714:179],7/3,
{4}4,5,3,6,
{4}2/3h[4:3],1,2,1,
{4}5/6h[4:1],7,6,,
{4}4/3h[4:1],2,3,,
{1}2h[4:3]/1h[4:3],
{8}6/3,,6/3,,,,,6h[8:5],
{8},,2,,2,,,8h[8:5],
{8},,1,,1,,,5/4,
{8},,3,2,,1/7,,3h[8:5]/6h[8:5],
{8},,,,,,,8,
{4},1b/8b,,3^6[4:1],
{4}7h[2:1],,1,2,
{4}5-1[4:1],6h[2:1],,,
{4}2,2,4/3,4/5,
{4}5/6,7/2,2,,
{4}7/4,3/6,2/5,,
{4}2/6h[4:1],2h[4:1],1,,
{2}8^5[8:1],4-1[8:1],
{4},,,3^6[4:1],
{4}7h[2:1],,1,2,
{4}5-1[4:1],6h[2:1],,,
{4}1h[4:1]/2h[4:1],,1/8,8/7,
{4},8/1h[4:1],2,,
{4}5/7,4/6,6/5,,
{4}4/2,3/5,4/3,,
{8}6h[2:1]/3h[2:1],,,,,,8,1,
{4},1/2,7/3,4/8,
{4}1h[2:1],,,5-1[2:1],
{4},,,3/7,
{4}6,5,4,3-6[2:1],{1},
{1}2b/6b,
E
&inote_5=(180.0){1},,
{8}2,2,,,,,1,,
{8}7,7,,,,8,,2,
{8},2,,,,1,,7,
{8},7,7,,6,,5,,
{4}4/2,,,3,
{8}5/6,5/6,,,,6,,4/2,
{8},4/2,,,,3,,3,
{8},2/8,1/7,,8b/1b,,8b/1b,,
{8}5,3,,2,,8,,6,
{8},7,7,,1,8,1,,
{8},2,2,,8,1,8,,
{8},7,,7,5,4,5,,
{8}4,6,,7,,1,,3,
{8},2,2,,8,1,8,,
{8},7,7,,1,8,1,6,
{8},7/1,8/2,,1,,1,,
{8}6/5,,4,3,,6/3,,7,
{8},6,5,,4,,1b/8b,,
{8}4/3,,5,6,,6/3,,2,
{8},3,4,,5,,1b/8b,,
{8}7h[8:7],,6-3[4:1],,,,,8,
{8},6/1,,,2/7,,3/4,,
{8}2h[8:7],,8-4[4:1],,,,,1,
{8},5/2,,,6/3,,5/6,,
{8}5h[8:7],,7^2[4:1],,,,,4,
{8},7/3,,,6/2,,3/2,,
{8}3,,7,8,,7/6,,6,
{8},2,1,,2/3,,7/6,,
{8}8h[8:7],,7-4[4:1],,,,,3,
{8},1h[8:3],,,7,,2/3,,
{8}1h[8:7],,2-7[4:1],,,,,6,
{8},8h[8:3],,,2,,6/7,,
{8}4h[8:7],,3-8[4:1],,,,,7,
{8},5h[8:3],,,3,,2/1,,
{8}5,,4,4,,6,,3,
{8},7,8,,8/7,,8b/1b,,
{8}6,,3,,4,5,,2h[8:7],
{4}1,7,1,7,
{8}7,,2,,1,8,,3h[8:7],
{4}1,7,1,7,
{8}6/2,,7/3,,1b/8b,1b/8b,,7/2,
{8},,3/6,,1b/8b,1b/8b,,6/4,
{8},,3/5,,1b/8b,8b/1b,,8/6,
{8},,3/1,,8b/1b,1b/8b,,3,
{4}7h[4:1],2h[4:1],6h[4:1],3h[4:1],
{4}8h[4:1],1h[4:1],5h[4:1],4h[4:1],
{4}6h[4:1],7h[4:1],8h[4:1],1h[4:3],
{8}2h[2:1],,,,,2,1,8,
{8},,8/6,,8/6,7,8,1,
{8},,1/3,,3/1,2,1,8,
{8},,6/4,,3/5,,4,3,
{8}2,,1,,8,,,8b/1b,
{8},7/1,1b/8b,,,,,,
{8}6/8,7/8,,1/2,,7/3,,5/4,
{8},7/2,,7,8,,2/1,,
{8}1/3,1/2,,7/8,,6/2,,4/5,
{8},2/7,,2,1,,7/8,,
{8}6,5,,7/4,,6/3,,5/2,
{8},4/1,,7,8,,1b/8b,,
{8}5/1,,3/7,,2/6,2,,7,
{8},6/2,6,,6/3,,1b/8b,,
{8}8/6,7/8,,1/5,,7/3,,4/8,
{8},7/3,,7,4/8,,2/1,,
{8}1/3,1/2,,8/4,,2/6,,4/8,
{8},2/6,,2,5/1,,8/7,,
{8}3,4,,8/5,,1/6,,2/7,
{8},8/3,,4,1/5,,,6^3[8:3],
{8},2,2,,1,,3/7,6/1,
{4},4,2,7,
{8}5/1,3/7,,2,,8/4,,6,
{8},7,7,,1,8/4,1,,
{8},2,2,,8,1/5,8,,
{8},7/3,,3/7,5,4/8,8b/1b,
E
