&title=メグメグ☆ファイアーエンドレスナイト
&artist=samfree
&wholebpm=162
&demo_seek=53.2
&demo_len=12.8
&lv_1=2
&lv_2=7
&lv_3=7+
&lv_4=8+
&lv_5=11+
&des_4=maimai TEAM
&des_5=maimai TEAM
&inote_1=(162.0){1},,
{1}1,
{1}2,
{1}3,
{1}4,
{1}5,
{1}6,
{1}7,
{1}8,
{1}1h[4:3]/8h[4:3],,
{1}2,
{1}2,
{1}1,
{1}8/1,
{1}7,
{1}7,
{1}8,
{1}1,
{1}2,
{1}2,
{1}1,
{1}1,
{1}8,
{1}8,
{1}7h[4:3],,
{2}7,8,
{1}1h[2:1],
{2}2,1,
{1}8h[2:1],
{1}7,
{1}6,
{2}5,4,
{1}3,
{1}2b,
{2}1/8,1/8,
{1}1,
{2}2,3,
{2}2,1,
{2}1/8,8/1,
{1}8,
{2}7,6,
{1}8-5[2:1],,
{1}4h[2:1],
{1}3h[2:1],
{1}2h[2:1],
{1}1,
{1}8,
{1}1/8,
{1}8b,
{2}7,7,
{2}8,1,
{2}2,2,
{2}3,4,
{2}5,5,
{2}6,7,
{2}8,8,
{1}1b,
{1}1/8,
E
&inote_2=(162.0){1},,
{1}3/6,
{1}5h[2:1],
{1}7h[2:1],
{1}6/3,
{4},6,4,5,
{4},3h[4:1]/6h[4:1],,6,
{4},3,,6,
{4},3,,6,
{4}5,4,
{2}6h[1:1]/3h[1:1],{1},
{4},8/1,,1,
{4},8,,6,
{4},5,,4,
{4}8,1,5,4,
{4},6,,3,
{4},8,,1,
{4},7/2,,6,
{4}5,4,7/3,,
{4},6,,3,
{4},6,,2/7,
{4},6,,3,
{4},6h[4:1],,6/3,
{4},3,,6,
{4},3,,6/3,
{4}4,5,3,6,
{1}5-8[4:1],
{4}1,2,6,5,
{4}6h[4:1],,7/6,1,
{4}1-4[4:1],,,3/6,
{4}6/3,5,7/6,6/7,
{4}8/4,,,5/1,
{1}5h[4:3]/4h[4:3],
{4},6/3,2/7,1/8,
{1}2h[4:3]/7h[4:3],
{1}2b,
{4}4,5,3/6,,
{4}1,2,,,
{2}8/7,2/1,
{4}5,4,1,8,
{4}4,5,3/6,,
{4}1,2,,,
{2}8/7,2/1,
{4}3,4,5,,
{4}1,,2,2,
{4},,1,8,
{4},,8,8,
{4},,6,3,
{4},7,,6/2,
{4},2,,7/3,
{1}3-6[2:1],
{1}8b,
{4},8/1,,1,
{4},8,,6,
{4},5,,4,
{4}8,1,5,4,
{4},6,,3,
{4},8,,1,
{4},7/2,,6,
{4}5,4,7/3,,
{8},,,,,,,7b,
E
&inote_3=(162.0){1},,
{4}7,1h[2:1],,,
{4}2,8h[2:1],,,
{4}6,7,8,1,
{4}3,2,1,8,
{4}7,1h[2:1],,,
{4}2,8h[2:1],,,
{4}6,7,8,1,
{4}3,2,1,8,
{4}4h[2:1],5h[4:1],,7/2,
{1}1^4[2:1]/8^5[2:1],
{4}2,1/8,8,2/7,
{4}1,2/7,8,7/2,
{4}3,4,5,6,
{4}8,2,6,4,
{4}2,6/3,7,6/3,
{4}4,6/3,5,6/3,
{4}2,1,8,7,
{4}7,2,8,1,
{4}3,4/3,6,6/5,
{4}7,8,7h[4:1],,
{4}6,6/5,3,4/3,
{4}2,1,2h[4:1],,
{4}3,4/3,6,6/5,
{4}2,3/2,7,6/7,
{4}5/3,6/4,7,2,
{4}1,1,2/8,7/1,
{1}7-3[2:1],
{4}7,2,6/3,6/3,
{1}1-4[2:1]/8-5[2:1],
{4}8,1,7/3,7/3,
{4}6h[4:3],8,7,8,
{4}3h[4:3],1,2,1,
{4}8,1,8,1,
{1}2h[4:3]/6h[4:3],
{1}6-2[4:1],
{4}6,3,5/4,,
{4}7,8^3[4:1],,,
{4}6/8,3,1/3,6,
{4}3,6,1b,8b,
{4}6,3,4/5,,
{4}7,8^3[4:1],,,
{4}6/8,3,1/3,6,
{4}6/4,3/5,6,3,
{1}8-4[4:1],
{4}2/6,3/7,6,7,
{1}8^3[4:1],
{4}4/3,6/5,6,7,
{4}1,8/2,1,3/7,
{4}8,7/1,8,2/6,
{1}7^2[2:1],
{1}1-4[2:1],
{4}2b,1/8,8,2/7,
{4}1,2/7,8,2/7,
{4}3,4,5,6,
{4}8,2,6,4,
{4}2,6/3,7,6/3,
{4}4,6/3,5,6/3,
{4}2,1,8,7,
{4}7,2,8,1b,
{1}1/8,
E
&inote_4=(162.0){1},,
{4}5h[2:1]/4h[2:1],,,8-5[4:1],
{4},,,2-7[4:1],{1},
{1}5h[2:1]/4h[2:1],
{4}2,6,3,5/4,
{2}2h[4:1],1^4[4:1],
{4},5/2,,7/4,
{4},7/1,,8/2,
{8}6/3,,4/5,,1/8,,,7/2,
{8},8,1,7h[8:3]/2h[8:3],,,,,
{4}1/8,7/8,1,1/2,
{4}8,7,8,3/4,
{4}5,6,7,6b/3b,
{4}8h[4:1],2h[4:1],6h[4:1],4h[4:1],
{4}5,3/5,4,4/6,
{4}5/6h[4:1],7,4/3h[4:1],2,
{4}8/1,7/2,1/7,2/8,
{16}5,,,4,,,3h[2000:499]/8h[2000:499],,,,,,,,,,
{4}1,7/3,8,6/2,
{4}1,3/5-1[4:1],,,
{4}2,8/3,7,1/6,
{4}2,3/1-4[4:1],,,
{4}1,3/7,8,6/2,
{4}1,3/7,4,5,
{4}3/4,6/5,2,7,
{4}2^5[4:1],,6,7,
{4}1h[4:1],7,8h[4:1],2,
{4}1h[4:1],,7/8,2/1,
{4}2h[4:1],3h[4:1],4h[4:1],5,
{4}3/6,3/6,7,2,
{1}3^8[2:1]/7^4[2:1],
{4},,4/5h[4:1],4,
{8}6/3,,,2/7,,,1-4[2:1]/8-5[2:1],,
{4},,,4^1[2:1]/5^8[2:1],{1},
{8}4h[4:1],,5,,7/2,,,3/6,
{8},6,7,8^3[4:1],,,,,
{4}8/7,6,2/1,3,
{4}4,5,1b/6b,8b/3b,
{8}6h[4:1],,4,,2/7,,,6/3,
{8},6,7,8^3[4:1],,,,,
{4}7/8,6,2/1,3,
{4}6,1,3,8,
{4}7,3,7/4,5/2h[4:1],
{4}1,1,6^3[10000:2507],,
{8}8,,2/1,,8,1/8^5[4:1],,,{1},
{4}7/8,6/2,7/8,5/1,
{4}2/1,7/3,2h[2:1],1^6[2:1],
{4},,,8-5[2:1],{1},
{4}8/1,7/8,1,2/1,
{4}8,7,8,3/4,
{4}5,6,7,3b/6b,
{4}8h[4:1],2h[4:1],6h[4:1],4h[4:1],
{4}5,3/5,4,6/4,
{4}5/6h[4:1],7,4/3h[4:1],2,
{4}1/8,2/7,7/1,2/8,
{16}5,,,4,,,3h[1250:313]/8h[1250:313],,,,,,,,,,
{8},1,7,3,5,4,6,3b,
E
&inote_5=(162.0){1},
{8}2-5[4:1],7-4[4:1],,,,,,,
{8}1,2,,4,,3,2,,
{8}8,7,,5,,6,7,,
{8}2,7,,5,,3,6,,
{8}2/8,,4/2,,5,6,7,,
{8}8,7,,5,,6,7,,
{8}1,2,,4,,3,2,,
{8}7,2,,4,,6,3,,
{8}7/1,,7/5,,4,3,8b/2,,
{16}2/5,,,,4/7,,,,2,,,3,,,1h[4:1],,
{8},8,7,6,,,1b/5,,
{8}2/8,,1/3,,2/4,,7,6,
{16}2,,,1,,,4,,,3,,,5,,6,,
{8}1/7,,6/8,,5/7,,2,3,
{8}1/5,,3/7,,1/5,,4,3,
{8}6/4,,5/7,,8/6,,2,3,
{16}6,,,5,,,7,,,8,,,1,,2,,
{8}5/3,,2/4,,1/3,,6,7,
{16}8,,,2,,,1<5[625:156],,,,,,,,,,
{8},1,2,,8,7h[4:1],,6h[4:1],
{8},5h[4:1],,4h[4:1],,3h[4:1],,,
{8},7,8,,2,1,,4h[4:1],
{8},3,2,,5,,2/6,,
{8},8,7,,5,,3,2h[4:1],
{8},1h[4:1],,8h[4:1],,7h[4:1],,6h[4:1],
{8},5,4>8[2:1],,,,,,
{4},,7/6,5/4,
{4}1^3[4:1]/8^6[4:1],,,5/6,
{8},4/3,,1/8,2,7,3,6,
{8},,8/6,,,1/3,,,
{8},,7/5,,2/4,5,4,6,
{8}3,,1/8,,,1/3,,8,
{8}7,6,,4,3/5,,4/2,,
{8}3/1,,7,6/8,,5,4,3,
{8}
{830}2h[1666:1249],,,,,,,,,,,,,,,,,,,,,,,,,,,,,,,,,,,,,,,,,,,,,,,,,,,,,,,,,,,,,,,,,,,,,,,,,,,,,,,,,,,,,,,,,,,,,,,,,,,,,,,,,,,,,,,,,,,,,,,,,,,,,,,,,,,,,,,,,,,,,,,,,,,,,,,,,,,,,,,,,,,,,,,,,,,,,,,,,,,,,,,,,,,,,,,,,,,,,,,,,,,,,,,,,,,,,,,,,,,,,,,,,,,,,,,,,,,,,,,,,,,,,,,,,,,,,,,,,,,,,,,,,,,,,,,,,,,,,,,,,,,,,,,,,,,,,,,,,,,,,,,,,,,,,,,
{8}5,6,6,7,,
{16}6-2[4:1],,,,,,,,,,8,7,8b,,,,
{16}2/8,,1,,2/8,,1,,3,,,6,,,5/8,,
{8},7/1,8,1/7,,4,3,2,
{8}1/3,,2/8,8/6,,1/7,,4,
{8}5,3,6,2,3h[4:1],,1b,,
{16}1/7,,8,,1/7,,8,,6,,,3,,,1/4,,
{8},2/8,1,2/8,,5,6,7,
{8}6/8,,1/7,1/3,,2/8,,5,
{8}3,6,7/3,8h[4:1]/2h[4:1],,,1/8b,,
{2}7^4[4:1],3^8[4:1],
{2}7-3[4:1],2-6[4:1],
{2}7^2[4:1],3^6[4:1],
{4}7-2[4:1],,5,4,
{8}1h[4:1],,2h[4:1],,3h[4:1],,4,8h[4:1],
{8},7,6,,5h[4:1],,4,,
{4}3-7[2:1],2,1,8,
{8}5/1,2,6,3,7,4,8,5b,
{8}1/7,,8/6,,5/7,,2,3,
{16}7,,,8,,,5,,,6,,,4,,3,,
{8}8/2,,3/1,,2/4,,7,6,
{8}4/8,,6/2,,8/4,,5,6,
{8}3/5,,4/2,,3/1,,7,6,
{16}3,,,4,,,2,,,1,,,8,,7,,
{8}6/4,,7/5,,8/6,,3,2,
{16}1,,,7,,,3/6,,,,2,,7,,,,
{16}8,,7,,6,,5,,4,,3,,2,1,2b,
E
