&title=マリアをはげませ
&artist=大谷智哉「リズム怪盗R 皇帝ナポレオンの遺産」
&wholebpm=131
&demo_seek=8.5
&demo_len=15.5
&lv_1=2
&lv_2=5
&lv_3=7
&lv_4=8+
&lv_5=11+
&des_4=ニャイン
&des_5=ニャイン
&inote_1=(131.0){1},2,
{1}2,
{1}1,
{1}8-5[2:1],
{4},,,7,
{4},,,7,
{4},,,8,
{4},,,8,
{4},,,1,
{4},,,2,
{4},,,3,
{4},,,2b,
{4},,,1h[2:1],
{4},,,8,
{4},,,8h[2:1],
{4},,,1,
{4}1,1,,,
{4}2,2,,,
{4}1,1,,,
{1}8b,
{1}8,
{1}7,
{1}6,
{1}5,
{4}4,4,4,,
{4}3,3,3,,
{4}2,2,2,,
{4}1,1,1,,
{1}1h[2:1],
{1}2h[2:1],
{400},3-6[400:199],,,,,,,,,,,,,,,,,,,,,,,,,,,,,,,,,,,,,,,,,,,,,,,,,,,,,,,,,,,,,,,,,,,,,,,,,,,,,,,,,,,,,,,,,,,,,,,,,,,,,,,,,,,,,,,,,,,,,,,,,,,,,,,,,,,,,,,,,,,,,,,,,,,,,,,,,,,,,,,,,,,,,,,,,,,,,,,,,,,,,,,,,,,,,,,,,,,,,,,,,,,,,,,,,,,,,,,,,,,,,,,,,,,,,,,,,,,,,,,,,,,,,,,,,,,,,,,,,,,,,,,,,,,,,,,,,,,,,,,,,,,,,,,,,,,,,,,,,,,,,,,,,,,,,,,,,,,,,,,,,,,,,,,,,,,,,,,,,,,,,,,,,,,,,,,,,,,,,,,,,,,,,,,,,,,,,,,,,,,,,,,,,,,,,,,,,,,,,,,{1},
{2}5,5,
{2}6,6,
{2}7,7,
{2}6,6,
{4}5,5,,,
{4}4,4,,,
{1}3h[2:1],
{1}2b,
{1}1,
{1}1,
{1}2,
{1}3,
{4}2,2,,,
{4}1,1,,,
{4}8,8,,,
{4}7,7,,,
{2}6,6,
{2}5,5,
{1}6h[2:1],
{1}7h[2:1],
{2}8,8,
{2}1,1,
{2}2,2,
{2}3,3,
{1}4-1[2:1],,
{1}8/1,
{4}8-5[2:1],,,,
E
&inote_2=(131.0){1},1,
{1}1,
{2}8,8,
{1}8-5[2:1],
{2}6,6,
{2}7,7,
{2}8,8,
{2}1,1,
{2}2,2,
{2}3,3,
{2}4,4,
{2}5,5,
{1}6-3[10000:5017],
{2}2,1,
{1}8-5[2:1],
{2}4,4,
{4}5,5,,,
{4}6,6,,,
{8}7,,7,,,8,,8b,{1},
{1}1h[4:3],
{1}2h[4:3],
{1}3h[4:3],,
{4}2,2,3,,
{4}3,3,4,,
{4}4,4,5,,
{4}5,5,6,,
{1}6-3[2:1],
{1}2-7[2:1],
{1}8-5[2:1],
{1}1-4[2:1],
{4}1,,1,8,
{4}7,,6,7,
{4}8,,1,2,
{4}3,,4,5,
{4}4,,3,2,
{4}1,,8,1,
{8}2/7,,2/7,,,1/8,,8/1b,{1},
{1}8h[4:3],
{1}1h[4:3],
{1}7h[4:3],
{1}2h[4:3],
{2}3,3,
{2}4,4,
{2}5,5,
{4}4,5,4,,
{1}5h[4:3],
{1}6h[4:3],
{357}7,,,,,,,,,,,,,,,,,,,,,,,,,,,,,,,,,,,,,,,,,,,,,,,,,,,,,,,,,,,,,,,,,,,,,,,,,,,,,,,,,,,,,,,,,,,,,,,,,,,,,,,,,,,,,,,,,,,,,,,,,,,,,,,,,,,,,,,,,,,,,,,,,,,,,,,,,,,,,,,,,,,,,,,,,,,,,,,,,,7,,,,,,,,,,,,,,,,,,,,,,,,,,,,,,,,,,,,,,,,,,,,,,,,,,,,,,,,,,,,,,,,,,,,,,,,,,,,,,,,,,,,,,,,,,,,,,,,,,,,,,,,,,,,,,,,,,,,,,,,,,,,,,,,,,,,,,,,,,,,,,,,,,,,,,,,,,,,,,,,,,,,,,,,,,,,,,,,,,,
{4}8,1,8,,
{4}1h[761:192],,1,1,
{4}2h[4:1],,2,2,
{4}3h[4:1],,3,3,
{2}4h[4:1],5h[4:1],
{4}4,5,3,6,
{4}2,7,1,8,
{8}2/7,,2/7,,,8/1,,1b/8b,
E
&inote_3=(131.0){1},
{4},2,,2,
{4},2,,2,
{4},2,,2^7[2:1],{1},
{4}8/1,7,6,7/2,
{4}2/7,3,4,3/6,
{4}4/5,6,7,6/3,
{4}3/6,2,1,2/7,
{4}8,7/2,2,3/6,
{4}6,4/5,3,4/5,
{1}6^1[4:1],
{1}3^8[4:1],
{4}1,1/2,1,1/2,
{4}8,8/7,8,7/8,
{4}4,3/4,4,4/3,
{4}5,5/6,5,5/6,
{4}7/2,7/2,,,
{4}1,2,3,4,
{8}3,3,3,,,8,8,8b,{1},
{4},6,,6,
{4},5,,5,
{4},4,,4,
{4},3,,3,
{8}2h[4:1],,,,8,8,8,,
{8}1h[4:1],,,,7,7,7,,
{1}6-2[4:1],
{1}3-7[4:1],
{4}8,7/8,8,7/8,
{4}1,2/1,2/3,4/3,
{1}2h[4:3],
{1}1h[4:3],
{8}8,,7,,8,8,8,,
{8}3,,4,,3,3,3,,
{8}1,,2,,1,1,1,,
{8}5,,6,,5,5,5,,
{4}4,4/3,3,2/3,
{4}2,1/2,1,1/8,
{8}6,6,6,,,1,1,1b,{1},
{4},3,,5,
{4},7,,1^6[2:1],{1},
{1}6h[4:3],
{8}7h[4:1],,8,,1,2,1,,
{8}8h[4:1],,7,,6,5,6,,
{8}7h[4:1],,8,,1,2,1,,
{8}2h[4:1],,3,,4,5,4,,
{4}3,2,1,1/8,
{4}2,3,4,5/4,
{2}3h[2:1],2h[2:1],
{4}1h[4:1],,1/8,2/7,
{8}2h[4:1],,1,,8,7,8,,
{8}1h[4:1],,2,,3,4,3,,
{8}2h[4:1],,1,,8,7,8,,
{8}7h[4:1],,6,,5,4,5,,
{4}5/6,7,8/7,1,
{4}2/1,1,8,7,
{8}6,6,6,,,1,1,1b,{1},
{4},5,,4,
{4},3,,
{1}2^5[4:3],,
E
&inote_4=(131.0){1},
{4},2,,2,
{4},2,,2,
{4},2,,2^7[2:1],{1},
{4}6h[4:1],4h[4:1],2h[4:1],3,
{4}3h[4:1],5h[4:1],7h[4:1],6,
{4}1/8h[4:1],7,8/1h[4:1],2,
{4}2/7h[4:1],5,7/2h[4:1],4,
{2}5h[4:3],4h[4:3],
{2}6h[4:3],3h[4:1],
{1}1^4[2:1]/8^5[2:1],
{1}4-1[2:1]/5-8[2:1],
{4}1/2,1/2,7/8,7/8,
{4}2/1,1/2,7/8,7/8,
{4}3/4,3/4,5/6,5/6,
{4}3/4,3/4,5/6,5/6,
{8}4/5,5/4,4/5,,,2/7,7/2,2/7,
{8}1/8,7,2,6,3,5,4,,
{8}3/6,6/3,6/3,,,8/1,1/8,3b/7b,{1},
{4}1,2,3,4,
{4}5,6,7,8,
{4}8,7,6,5,
{4}4,3,2,1/8^3[4:1],
{8},,,,4,5,6^3[4:1],,
{8},,,,2,1,8,,
{4}8/1h[4:1],2,1/8h[4:1],7,
{4}7/2h[4:1],1,2/7h[4:1],8^3[4:1],
{4},8^5[4:1],,8,
{4}8/1h[4:1],2h[4:1],3h[4:1],4-8[4:1],
{4},1^4[4:1],,1^6[4:1],
{4},1,2,3b,
{4}8/1,7/2,2/1,7/2,
{4}8/1,7/2,8/7,7/2,
{4}4/5,6/3,4/3,6/3,
{4}5/4,3/6,5/6,3/6,
{4}4/5,4/3,6/5,3/6,
{4}5/4,1^4[4:1]/8^5[4:1],,,
{8}5/4,5/4,4/5,,,1/8,8/1,3b/7b,{1},
{4}8h[1:1],1,2,3,
{4}4h[1:1],5,6,7,
{4}8,1,2,3^8[2:1],{1},
{8}2/6,,7/3,,1,1,1,,
{8}3/7,,2/6,,8,8,8,,
{8}6/2,,4/8,,1,
{556}1,,,,,,,,,,,,,,,,,,,,,,,,,,,,,,,,,,,,,,,,,,,,,,,,,,,,,,,,,,,,,,,,,,,,,
{833}1,,,,,,,,,,,,,,,,,,,,,,,,,,,,,,,,,,,,,,,,,,,,,,,,,,,,,,,,,,,,,,,,,,,,,,,,,,,,,,,,,,,,,,,,,,,,,,,,,,,,,,,,,,,,,,,,,,,,,,,,,,,,,,,,,,,,,,,,,,,,,,,,,,,,,,,,,,,,,,,,,,,,,,,,,,,,,,,,,,,,,,,,,,,,,,,,,,,,,,,,,,,,,,,,,
{8}3/7,,5/1,,8,8,8,,
{4}5/1h[4:3],7,8,2,
{4}8/4h[4:3],6,5,3,
{4}6/3,6/7,3/2,7/8,
{4}2/1,8b/1,7/2b,6b/3,
{4}8/1h[4:1],2,2/7h[4:1],6,
{4}6/3h[4:1],4h[4:1],5h[4:1],6b,
{4}3/6h[4:1],5,7/2h[4:1],3,
{4}2/7h[4:1],8h[4:1],1h[4:1],2b,
{4}1/3h[4:1],7h[4:1],5h[4:1],4,
{4}4/2h[4:1],6h[4:1],8h[4:1],1,
{8}3/6,3/6,6/3,,,8/1,8/1,7b/3b,{1},
{4},5,,4,
{4},3,,
{1}2^5[4:3],,
E
&inote_5=(131.0){1},
{4},2,,2,
{4},2,,2,
{4}1-5[2:1],2,,2,
{1}6^1[2:1],
{8}1/2h[2:1],,8,8,7h[2:1],,6,6,
{8}2h[2:1],,3,3,6h[2:1],,5,5,
{8}4h[2:1],,5,5,6h[2:1],,5,5,
{8}3h[2:1],,4,4,7h[2:1],,6,6,
{1}1^4[2:1],
{1}1^6[2:1],
{2}5-2[8:1]/6^1[8:1],1-5[8:1]/2^5[8:1],
{2}4-8[10000:1289]/8^3[10000:1289],1^6[8:1]/5-1[8:1],
{8}6/7h[4:3],,8,1,2,3,4,,
{8}4/3h[4:3],,2,1,8,7,6,,
{8}6/7h[4:3],,8,1,2,3,4,,
{8}3/2h[4:3],,1,8,7,6,5,,
{8}1/5,6/2,3/7,,,4/8,7/3,6/2,
{8}5,4,3,2,1,8/1,8/1,,
{8}4/5,5/4,2/7,,,1^6[8:3]/8^3[8:3],
{4}7/2,{1},
{4}5h[4:1],1h[4:1],7h[4:1],3h[4:1],
{4}4h[1389:346],5h[4:1],6h[4:1],7,
{2}8/1^4[8:1],4/5^8[8:1],
{2}1/8^5[8:1],5/4^1[8:1],
{16}1/8,,4,5,4,5,4,5,4,,7/2,,4/5,,,,
{16}4/5,,1,8,1,8,1,8,1,,8/1,,2/7,,,,
{16}8/1,,5,4,5,4,5,4,5,,4/5,,2/7,,,,
{16}1,8,1,8,2,7,2,7,3,,5,,2/7,,,,
{16}6/3,,1,8,1,8,1,8,1,,7/2,,5/4,,,,
{16}4,5,4,5,3,6,3,6,2,,8,,8/1,,,,
{16}2,,6/2,,7,8,1,2,3,,3/8,,7,,6/1,,
{16}5,6,7,8,1,2,3,4,5,,5/2,,3,,7/4,,
{16}8h[2:1],,,,1,,2,,3,,,1,,,8b,,
{16},,7,,5,,3,,1,,,8/7,,,6/7,,
{16}5h[2:1],,4,,3,,2,,1,,,8,,,1b,,
{16},,2,,4,,6,,8,,,1/2,,,2/3,,
{2}3^8[8:1]/4-7[8:1],7^4[8:1]/8-3[8:1],
{2}1-4[10000:1289]/5-8[10000:1289],4-1[8:1]/8-5[8:1],
{8}5/4,4/5,7/2,,,1^6[8:3]/8^3[8:3],
{4}7/2,{1},
{8}6/7h[8:3],,1,2h[2:1],,3,,8h[4:1],
{16},,7,,1,2,3h[8:3],,,,,,2b,,,,
{1}4<1[2:1]/8>5[2:1],
{4}7h[2:1],1b,2h[2:1],8b,
{16}7,,7/2,,4,5,4,5,4,,6/3,,1,8,1,8,
{16}1,,7/2,,4,5,4,5,4,,6/3,,1,8,1,8,
{16}1,,7/2,,6,5,4,3,2,,2/7,,3,4,5,6,
{16}7,,8/1,,2,1,8,7,6,,1/8,,7,8,1,2,
{8}3,1,2,3h[8:3],,8,8b,,
{8}8,8,7,6h[8:3],,1,1b,,
{16}4/3h[8:3],,,5,,,6,,7h[8:3],,,8,,,1,,
{16}2h[8:3],,,3,,,4,,5,,,,1/8,,,,
{16}7,,6,5h[16:5],,,,,4,,3,2h[16:5],,,,,
{16}7,,6,5h[16:3],,,4,,2h[16:3],,,1h[16:3],,,,,
{16}2,,3,4h[16:5],,,,,5,,6,7h[16:5],,,,,
{16}2,,3,4h[16:3],,,5,,7h[4:1],,,,8b,,,,
{16}5/1,,,6/2,,,3/7,,8/4h[8:3],,,7,,,6,,
{4}1/5h[4:3],2,3,4,
{8}5/4,5/4,7/2,,,1^6[8:3]/8^3[8:3],
{4}2/7,{1},
{4},5,,4,
{4},3,,
{1}2^5[4:3],,
E
