&title=マトリョシカ
&artist=ハチ
&wholebpm=205
&demo_seek=47.4
&demo_len=14.6
&lv_1=3
&lv_2=6
&lv_3=8+
&lv_4=9+
&lv_5=11+
&lv_6=13
&des_4=maimai TEAM
&des_5=譜面-100号
&des_6=はっぴー
&inote_1=(205.0){1},,,,,
{1}2,
{1}1,
{1}8,
{1}7,
{1}7,
{1}8,
{1}1,
{1}2,
{1}1,
{1}1,
{1}8,
{1}8,
{1}1,
{1}1,
{1}8,
{1}8,
{1}7,
{1}6,
{1}5,
{1}4,
{1}3,
{1}3,
{1}2,
{1}2,
{1}1,
{1}1,
{1}8,,
{1}7h[2:1],,
{1}7-3[2:1],,
{1}2h[2:1],,
{1}2-6[2:1],,
{2}7,7,
{2}8,8,
{2}1,1,
{2}2,2,
{2}2,2,
{2}1,1,
{2}8,8,
{2}7,7,
{2}8,8,
{2}1,1,
{2}2b,8/1,
{2}1b,1/8,
{2}8,8,
{2}7,7,
{2}7,7,
{2}8,8/1,
{1}7,
{1}6,
{1}5,
{1}4,
{1}3,
{1}2,
{1}1,
{1}8,
{1}7,
{1}7,
{1}8,
{1}8,
{1}1,
{1}1,
{1}2,
{1}2,
{1}1/2,
{1}8/1,
{2}7,7,
{2}8,8,
{1}8/7,
{1}1/8,
{2}2,2,
{2}1,1,
{1}1,
{1}1/2,
{1}8,
{1}7/8,
{1}1,
{1}1/2,
{2}8,8,
{2}1,1/8,
E
&inote_2=(205.0){1},,,,,
{2}4,5,
{2}4,5,
{2}4,5,
{2}6,7,
{2}8,1,
{2}8,1,
{2}8,1,
{2}8,1,
{2}3,4,
{2}5,6,
{2}7,6/3,
{2}5,4,
{2}3,3/2,
{2}3,7/2,
{2}3,6/3,
{2}5,4,
{2}5b,4,
{4}6,6,6,,
{2}5,4,
{2}3,4,
{2}3,4,
{2}5,4,
{2}1,8,
{2}6/1,6/1,
{1}3h[4:3],
{2}2,1,
{2},7-2[2:1],{1},
{1}8h[2:1]/1h[2:1],
{2}8,1,
{1}2-6[2:1],,
{1}2h[2:1],
{2}1,8,
{1}7-3[2:1],,
{2}8/1,5/4,
{2}3,2,
{4}1,,8,8,
{4}1,,1,1,
{2},3,
{2}4,5,
{2}5/4,5/4,
{2}5,5,
{2}5/6,5,
{2}3/4,3,
{2}2/1,2,
{2}3,4,
{2}5,5/4,
{2}8/2,1/7,
{2}8,1,
{2}3/6,2b,
{2}5,4,
{2}5,4,
{2}5,4,
{2}5,4,
{2}6,3,
{2}6,3,
{2}6,3,
{2}6,3,
{2}1,1,
{4}2,2,2,,
{2}6/5,4/3,
{2}5,6,
{2}4/5,6/5,
{4}4/3,5,4,,
{2}3,2,
{1}1-4[2:1],
{2}3,7/2,
{2}6,2/7,
{2}3,7/2,
{2}7/2,7/2,
{2}1,7/2,
{4}8,8,2/7,,
{2}2,8/1,
{4}1,8,2,7b,
{2}1,1,
{2}2,4/3,
{2}1,8,
{2}7,5/6,
{2}5,6,
{2}7,2/7,
{2}8,8,
{4}2,2,3/8,
E
&inote_3=(205.0){1},,,,,
{4},1,,2,
{4},3,,4,
{4},5,,6,
{4},7,7,,
{4},8,,7,
{4},6,,5,
{4},4,,3,
{4},2,2,,
{4},8,8,1,
{4},2-7[4:1],,,
{4},4,4,5,
{4},6-3[4:1],,,
{4},8,8,7,
{4},8-5[4:1],,,
{4},4,4,3,
{4},4-1[4:1],,,
{4},8,,7,
{4},6,,5,
{4},4,,3,
{4},2,2,,
{4},1,2,1,
{4},3,3,,
{4},5,6,5,
{4}6,7,7,,
{4},3,4,3,
{4},1,2,1,
{4},8,7,8,
{4}6,7/2,7/2,,
{4}2h[1:1],,,3,
{4}6,8,8b/1,,
{2}6h[4:7],3,
{2}8,1,
{4}7h[1:1],,,6,
{4}3,1,8/1b,,
{2}2,6,
{4}3/4,6/5,4/3,,
{4},2,,3,
{4},8,8,,
{2}8h[2:1],1h[2:1],
{4},2,3,2/7,
{4},7,,6,
{4},1,1,,
{125},,,,,,,,,,,,,,,,,,,,,,,,,,,,,,,
{500}1h[500:251],,,,,,,,,,,,,,,,,,,,,,,,,,,,,,,,,,,,,,,,,,,,,,,,,,,,,,,,,,,,,,,,,,,,,,,,,,,,,,,,,,,,,,,,,,,,,,,,,,,,,,,,,,,,,,,,,,,,,,,,,,,,,,,,,,,,,,,,,,,,,,,,,,,,,,,,,,,,,,,,,,,,,,,,,,,,,,,,,,,,,,,,,,,,,,,,,,,,,,,,,,,,,,,,,,,,,,,,,,,,,,,,,,,,,,,,,,,,,,,,,,,,,,,,,,,8,,,,,,,,,,,,,,,,,,,,,,,,,,,,,,,,,,,,,,,,,,,,,,,,,,,,,,,,,,,,,,,,,,,,,,,,,,,,,,,,,,,,,,,,,,,,,,,,,,,,,,,,,,,,,,,,,,,,,,,,,,,,,
{4}7,6,5,3/6,
{4},2,,1,
{4},6,6,,
{2}7h[2:1],8h[2:1],
{4},7,6,2/7,
{4},7,,8,
{4},3,3,,
{4},1,8,3,
{4}6,5/4,6/3,7b/2b,
{4},8,,7,
{4},6,,5,
{4},4,,3,
{4},2,2b,,
{4},1,,2,
{4},3,,4,
{4},5,,6,
{4},7,7b,,
{4},1,2,1,
{4},3,3,,
{4},5,6,5,
{4}6,7/8,6/7,,
{4},3,4,3,
{4},1,2,1,
{4},8,7,8,
{4}6,6/5,5/4,,
{4},2-7[4:1],,,
{4},6-3[4:1],,,
{4},4-7[4:1],,,
{4},2-5[4:1],,,
{4},8-5[4:1],,,
{4},4-1[4:1],,,
{4},7-2[4:1],,,
{4}1/2,7/8,3/6,2b/7b,
{4}8h[1:1],,,3,
{4}6,7b/2,7b/2,,
{2}8,1,
{2}2,3,
{4}1h[1:1],,,7,
{4}2,3/6b,3/6b,,
{2}2,1,
{4}8/7,1/2,8/7,
E
&inote_4=(205.0){1},,,,,
{4}4,3,2,1,
{4}8,7,6,5,
{4}4,5,6,7,
{4}8,1,2,3,
{2}5h[4:1],4h[4:1],
{2}5h[4:1],4h[4:1],
{2}8h[4:1],1h[4:1],
{2}8h[4:1],1h[4:1],
{4}3,4,5,6,
{476},2h[238:59],,,,,,,,,,,,,,,,,,,,,,,,,,,,,,,,,,,,,,,,,,,,,,,,,,,,,,,,,,,,,,,,,,,,,,,,,,,,,,,,,,,,,,,,,,,,,,,,,,,,,,,,,,,,,,,,,,,,,,1,,,,,,,,,,,,,,,,,,,,,,,,,,,,,,,,,,,,,,,,,,,,,,,,,,,,,,,,,,,,,,,,,,,,,,,,,,,,,,,,,,,,,,,,,,,,,,,,,,,,,,,,,,,,,,,,,,,,,,,6h[4:1],,,,,,,,,,,,,,,,,,,,,,,,,,,,,,,,,,,,,,,,,,,,,,,,,,,,,,,,,,,,,,,,,,,,,,,,,,,,,,,,,,,,,,,,,,,,,,,,,,,,,,,,,,,,,,,,,,,,,,,7,,,,,,,,,,,,,,,,,,,,,,,,,,,,,,,,,,,,,,,,,,,,,,,,,,,,,,,,,,,,,,,,,,,,,,,,,,,,,,,,,,,,,,,,,,,,,,,,,,,,,,,,,,,,,,,,,,,,,,,
{2}7/2,3/6,
{4}5h[4:1],3,4h[4:1],6,
{4}5,4,3,2,
{999}3h[4:1],,,,,,,,,,,,,,,,,,,,,,,,,,,,,,,,,,,,,,,,,,,,,,,,,,,,,,,,,,,,,,,,,,,,,,,,,,,,,,,,,,,,,,,,,,,,,,,,,,,,,,,,,,,,,,,,,,,,,,,,,,,,,,,,,,,,,,,,,,,,,,,,,,,,,,,,,,,,,,,,,,,,,,,,,,,,,,,,,,,,,,,,,,,,,,,,,,,,,,,,,,,,,,,,,,,,,,,,,,,,,,,,,,,,,,,,,,,,,,,,,,,,,,,,,,,,,,,,,,,,,,,,,,,,,,,,,,,,,,,,,,,,,,,,,,,,,,,,,,,,,,,,,,,,,,,,,,,,,,,,,,,,,,,,,,,,,,,,,,,,,,,,,,,,,,,,,,,,,,,,,,,,,,,,,,,,,,,,,,,,,,,,,,,,,,,,,,,,,,,,,,,,,,,,,,,,,,,,,,,,,,,,,,,,,,,,,,,,,,,,,,,,,,,,,,,,,,,,,,,,,,,,,,,,,,,,,,,,,,,,,,,,,,,,,,,,,,,,,,,2/7,,,,,,,,,,,,,,,,,,,,,,,,,,,,,,,,,,,,,,,,,,,,,,,,,,,,,,,,,,,,,,,,,,,,,,,,,,,,,,,,,,,,,,,,,,,,,,,,,,,,,,,,,,,,,,,,,,,,,,,,,,,,,,,,,,,,,,,,,,,,,,,,,,,,,,,,,,,,,,,,,,,,,,,,,,,,,,,,,,,,,,,,,,,,,,,,,,,,,,,,,,,,,,,,,,,,,,,,,,,,,,,,,,,,,,,,,,,,,,,,,,,,,,,,,,,,,,,,,,,,,,,,,,,,,,,,,,,,,,,,,,,,,,,,,,,,,,,,,,,,,,,,,,,,,,,,,,,,,,,,,,,,,,,,,,,,,,,,,,,,,,,,,,,,,,,,,,,,,,,,,,,,,,,,,,,,,,,,,,,,,,,,,,,,,,,,,,,,,,,,,,,,,,,,,,,,,,,,,,,,,,,,,,,,,,,,,,,,,,,,,,,,,,,,,,,,,,,,,,,,,,,,,,,,,,,,,,,,,,,,,,,,,,,,,,,,,,,,,,,,
{4}3,6/3,1,8,
{4}2/4,3/5,4/6,6-2[4:1],
{2},3,
{4}6/5,6/5,6/5,,
{4}5,4,3,2,
{4}1,8,7,,
{4}3,2,6,7,
{4}5h[238:59],4,4h[4:1],5,
{2}8/1,2/7,
{2}6/1,6/1,
{1}3h[4:3]/2h[4:3],
{4}4,6/7,8h[4:1],,
{4}5,4,4/5,,
{1}2^7[2:1],
{1}1-4[4:1]/8-5[4:1],
{2}6h[4:1],3h[4:1],
{2}7h[4:1],2h[4:1],
{1}1-5[4:1],
{2}5/7h[2:1],6,
{2}8/2h[2:1],1,
{1}7-2[2:1],
{4}4,4/5,4/3,,
{8}6/3,,1b,1,,4/5,,7/2,
{8},6,6,,8b/2b,,,,
{4}6/1,8,7,8,
{4}3/8,1,2,1,
{8}4/3,,6,6,,2/7,,1/8,
{8},3,3,,2/7,,,,
{4}6,5,4,3,
{4}7,8,2/7,,
{8}6/5,,2,2,,1/8,,7,
{8},5,5,,6b/3b,,,,
{4}2/1,7,3/2,6,
{4}3,4,5,6,
{8}6/2,,8,8,,3/7,,8/2,
{8},6,6/8,,2/7,,,,
{4}8/7,1/2,3/4,6/5,
{4}1,8,2b/7b,,
{2}7/8,1/2,
{2}7/8,1/2,
{2}7/1,8/2,
{2}7/1,8/2,
{4}6h[4:1],8,3h[4:1],1,
{4}6h[4:1],8,3h[4:1],1,
{4}7/1,7,2/8,2,
{4}1/7,7,2/8,2,
{4}2,1,8,7,
{4}8/1,8/1,8/1,,
{4}2,3,5/6h[4:1],5,
{4}3/4,6/5,3/2,,
{4}2,1,8,5/7,
{4}4/3,5/6,4/2,,
{4}7,6,2,3,
{4}6/3,1-4[4:1],,,
{4}6,8,3,1,
{4}7h[2:1],8,1,,
{4}2,3^6[4:1],,,
{4}6,7^2[4:1],,,
{4}8,8^5[4:1],,,
{4}1,1^4[4:1],,,
{4}4/2,3/5,4/6,7/5,
{4}8h[4:1],7,1h[4:1],2,
{8}6,,5,,4,,3,4,
{4}3,5,6/7,,
{4}2h[4:1],3,3h[4:1],4,
{4}4h[4:1],5,1/8,,
{8}3,,4,,5,,6,5,
{4}6,3,7/2,,
{4}6,5,4,3,
{4}2b/8b,1b/7b,8b/3b,
E
&inote_5=(205.0){1},,,,
{4}1,1,5/6,4/3,
{4}8,7,1,2,
{8}7,,8,1,2,,,,
{4}4,3,5,6,
{8}3,,4,5,6,,,,
{4}2,1,7,8,
{8}1,2,1,8,7,,,,
{4}6,5,3,4,
{8}5,6,5,4,3,,,,
{4}2,2/8,7,7/1,
{4}2,1/7,2/8,,
{4}3,3/5,6,6/4,
{4}3,6/5,4/3,,
{4}8,8/2,1,1/7,
{4}2,1/7,2/8,,
{4}3/4,4/5,6/5,5/4,
{8}3/1,,2/8,,7/1h[2:1],,,8,
{4}8,7,1,2,
{8}1,8,7,8,1,,,,
{4}4,3,5,6,
{8}5,4,3,4,5,,,,
{4}8/7,8/7,7/6,7/6,
{4}1/3,2/4,1/3,,
{4}2/1,2/1,3/2,3/2,
{4}5/7,6/8,5/7,,
{4}2/7,7/1,2/7,2/8,
{4}7/3,6/2,7/3,,
{4}8/1,8/2,8/1,7/1,
{4}7/6,6/5,5/4,,
{8}2,,4,4,5,,5,,
{8}7,,5,5,4,,4,,
{4}3,4/5,6,5/4,
{4}1/7,2/8,1/7,,
{8}7,,5,5,3,,4,,
{8}2,,4,4,6,,5,,
{4}7/6,8/1,3/2,4/5,
{4}7/6,3/2,7b/6b,,
{8}2,,6,7,6,,3,2,
{8}3,,7,3,7,,,,
{8}8,7,8,7,1,8,1,8,
{8}2,1,2,1,2,,2,,
{8}7,,3,2,3,,6,7,
{8}6,,2,6,2,,,,
{8}1,2,1,2,8,1,8,1,
{8}7,8,7,8,7,,,,
{8}1,,8,7,8,,4,3,
{8}4,,8,4,8,,,,
{8}4,4,5,5,3,3,6,6,
{8}2,2,7,2,7,,7,,
{8}8,,1,2,1,,5,6,
{8}5,,1,5,1,,,,
{8}8,8,1,1,7,7,2,2,
{8}6,6,3,6,3,,,,
{8}8,,1,8,7,,6,,
{8}6,7,8,1,2h[4:1],,,,
{8}4,,5,4,3,,2,,
{8}2,3,4,5,6h[4:1],,,,
{8}1,,8,1,2,,3,,
{8}3,2,1,8,7h[4:1],,,,
{8}5,,4,5,6,,7,,
{8}7,6,5,4,3h[4:1],,,,
{8}4,,3,,5,,6,5,
{8}4,4,3,4,5,,,5,
{8},5,6,,4,,3,4,
{8}5,5,6,5,4,,,,
{4}2,6,7,3,
{8}1/6,,7/3,,2/5,,,8,
{8},8,4,,1,,5,,
{4}4/7,2/6,3/8,,
{2}1-4[4:1],5-8[4:1],
{2}3-6[4:1],7-2[4:1],
{2}5-8[4:1],1-4[4:1],
{2}7-2[4:1],3-6[4:1],
{2}2-5[4:1],6-1[4:1],
{2}4-7[4:1],8-3[4:1],
{2}6-1[4:1],2-5[4:1],
{2}8-3[4:1],4-7[4:1],
{4}1h[2:1],,,5,
{4}3,3/4,6,6/5,
{4}4,1/7,2/6,5/3,
{1}4-8[4:1],
{4}8h[2:1],,,4,
{4}6,6/5,3,3/4,
{4}5,8/2,7/3,6/4,
{4}5b/1b,7b/3b,5b/1b,
E
&inote_6=(205.0){1},,,,
{4}1b,2b,3b,4b,
{8}2h[4:1],,1,1,2,4,,7,
{8}8,6,5,4,5/2,,1,8,
{8}7h[4:1],,8,8,7,5,,2,
{8}1,3,4,3,6,,3/4,,
{8}6h[4:1],,5,5,6,8,,3,
{8}4,2,1,2,6/1,,5,4,
{8}3h[4:1],,4,4,3,1,,6,
{8}5,7,8,7,2,,7/8,,
{8}3,4,2,6,5,7,2^5[8:1],,
{8}2^7[8:1],,2q3[4:1],,,,,6h[4:1],
{8},5,7,3,4,2,7^4[8:1],,
{4}7^2[8:1],7p6[4:1],,,
{8}3,4,2,6,5,7,2^5[8:1],,
{8}2^7[8:1],,2q3[4:1],,,,,6h[4:1],
{8},5,7,3,4,2h[4:1],,7,
{8}7/2^7[8:1],,6q3[8:1],,,,,5/2,
{4}5/2^5[8:1],1,4/7^4[8:1],8,
{4}5/2^5[8:1],1,4/7^4[8:1],8,
{4}1/6^1[8:1],5,8/3^8[8:1],4,
{4}1^4[8:1]/6^1[8:1],,3/8,4/5,
{8}2,1,3,7,8,6,3^6[8:1],,
{8}3^8[8:1],,3q8[8:1],,,,,2h[4:1],
{8},1,3,7,8,6,3,,
{4}1/8h[4:3],2,3h[4:1],,
{8}7,8,6,2,1,3,6^3[8:1],,
{8}6^1[8:1],,6p1[8:1],,,,,2h[4:1],
{8},1,1^6[4:1],,6^3[4:1],,3^8[4:1],,
{1}8>7[2:1],
{8}3h[4:1],,4,4,7h[4:1],,8,8,
{8}8z4[8:3],,,,,,,2h[4:1],
{8},1,1,,6h[4:1],,5<3[2:1],5q3[8:3],{1},
{8}6h[4:1],,5,5,2h[4:1],,1,1,
{1}1p8[2:1],
{4}2^4[8:1],7^4[8:1],8>4[8:1],,
{4}5b/6b,2b/5b,8b/4b,,
{8}1-5[8:1],,1,8-4[8:1],,8,,1>5[8:1],
{8},1,7-3[8:1],,1b,,5/4,,
{16}1,,6,5,6,,1,,8,,3,4,3,,8,,
{8}2h[4:1],,1v4[8:1],1,1v6[8:1],,,,
{8}8-4[8:1],,8,1-5[8:1],,1,,8<4[8:1],
{8},8,2-6[8:1],,8b,,4/5,,
{2}3h[8:3]/6h[8:3],3-5[8:1]/6v3[8:1],
{2}3v6[8:1]/6-4[8:1],7/2,
{8}7-4[8:1],,7,8-3[8:1],,8,,5-8[8:1],
{8},5,2h[4:1],,4b,,4/5,,
{16}8,,3,4,3,,8,,1,,6,5,6,,1,,
{8}7h[4:1],,8v5[8:1],8,8v3[8:1],,,,
{8}2^5[8:1],,2,1^6[8:1],,1,2,2,
{8},1/7,2^4[8:1]/6^4[8:1],,,,,,
{2}2v7[8:1]/7-1[8:1],2-8[8:1]/7v2[8:1],
{4}1^3[8:1]/8^6[8:1],1-5[8:1]/8-4[8:1],,,
{4}5/2^5[8:1],1,4/7^4[8:1],8,
{4}5/2^5[8:1],1,4/7^4[8:1],8,
{4}1/6^1[8:1],5,8/3^8[8:1],4,
{16}1^4[8:1]/6^1[8:1],,,,,,,,3/8,,6,5,6,,,,
{4}7^4[8:1],8,5/2^5[8:1],1,
{4}4/7^4[8:1],8,5/2^5[8:1],1,
{4}8/3^8[8:1],4,1/6^1[8:1],5,
{16}3^8[8:1]/8^5[8:1],,,,,,,,6/1,,3,4,3,,,,
{8}7,5,8,2,4,1,5^8[8:1],,
{8}5^2[8:1],,5p8[8:1],,,,,2h[4:1],
{8},4,1,7,5,8,4^1[8:1],,
{4}4^7[8:1],4q1[8:1],,,
{8}2,4,1,7,5,8,1-6[8:1],,
{8}1p4[8:1],,1p2[4:1],,,,,7h[4:1],
{8},5,8,2,4,1,8-3[8:1],,
{4}8q5[8:1],8q7[4:1],,,
{8}1^6[8:1],,2,2,3^8[8:1],,4,4,
{8}5^2[8:1],,6,6,7^4[8:1],,8,8,
{8}1^6[8:1],,2,2,3^8[8:1],,4,4,
{8}5^2[8:1],,6,6,7,,1/2,,
{8}8^3[8:1],,7,7,6^1[8:1],,5,5,
{8}4^7[8:1],,3,3,2^5[8:1],,1,1,
{8}8^3[8:1],,7,7,6,,4/5,,
{4}7-4[8:1]/8-3[8:1],7b/8b,1-6[8:1]/2-5[8:1],2b/1b,
{8}1h[4:1],,8p2[8:1],8,8,,1^4[8:1],,
{4}1^6[8:1],1-5[8:1],1,4/6^1[4:1],
{4}1^4[4:1],4^7[4:1],7,2,
{4}1^4[8:1]/8^5[8:1],,2/7,4/5,
{8}8h[4:1],,1q7[8:1],1,1,,8^5[8:1],,
{4}8^3[8:1],8-4[8:1],8,5/3^8[4:1],
{4}8^5[4:1],5^2[4:1],2,7,
{4}2b/1b,6b/1b,8b/4b,
E
