&title=ハッピーシンセサイザ
&artist=EasyPop
&wholebpm=127
&demo_seek=54.7
&demo_len=22.3
&lv_1=2
&lv_2=5
&lv_3=7+
&lv_4=9+
&lv_5=12
&des_4=譜面-100号
&des_5=ニャイン
&inote_1=(127.0){1},
{4},,,1,
{4},,,1,
{4},,,8,
{4},,,8/7,
{4},1,,1,
{4},8,,8,
{4},7,,7,
{4},6,,6,
{4},7,,7,
{4},8,,8,
{4},1,,1,
{4},2,,2/1,
{4},,,2,
{4},,,1,
{4},,,8,
{4},,7,7,
{4},,,6,
{4},,,5,
{4},,,4,
{4},,,1/2,
{4},2,,1,
{4},2,,1,
{4},8,,7,
{4},8,,7b,
{4},6,,5,
{4},6,,5,
{4},4,,3,
{4},4,,3b,
{4},2,,2,
{4},1,,1,
{4},8h[2:1],,,
{4},7,,6,
{4},6,,6,
{4},7,,7,
{4},8h[2:1],,,
{4},1,,2,
{1}3-8[2:1],,
{1}7-4[2:1],,
{1}5-2[2:1],,
{1}1-6[2:1],,
{4},7,,8,
{4},1,,1/8,
E
&inote_2=(127.0){1},
{2}6,3,
{2}5,4,
{2}6,3,
{4}5,4,,,
{4},8,,2,
{4},1,,7,
{4},8,,2,
{4},1,,7,
{4},7,,2,
{4},2,,7,
{4},7,,2,
{4},2,,7,
{4},,2,2,
{4},2,,7,
{4},,,6/2,
{4},,,2b/6,
{4},,5/4,5/4,
{4},,5/4,5/4,
{2}6,3,
{2}6,3,
{2}1h[4:1],2,
{4},,,6b/5,
{2}8h[4:1],7,
{4},,,4/3b,
{2}6,3,
{2}7,2,
{2}6,3,
{4},,,6/3,
{4}5,4,5,4,
{4}6,3,6,3,
{4}2,1,8,7,
{4}7,8,1,2,
{4},7,,7,
{4},2,,2,
{4},,1,4,
{2},5,
{4},,2/6,3/7,
{4}3,6,7,7,
{2}3,3,
{2}6/3,5/4,
{2}6,3,
{4}7,7,2,2,
{4},5,4,5,
{4},1-4[4:1],,,
{4}2,7,2,,
{4}2,7,2,
E
&inote_3=(127.0){1},
{2}1,4,
{2}7,2,
{2}5,8,
{2}3,6,
{8}8,,7h[2:1],,1,1,1,,
{8}1,,2h[2:1],,8,8,8,,
{8}7,,6h[2:1],,2,2,2,,
{4}1,8,7,6,
{8}7,,8h[2:1],,4,4,4,,
{8}2,,1h[2:1],,5,5,5,,
{8}6,,7h[2:1],,3,3,3,,
{4}2,1,8,7b,
{4},1,2-7[4:1],,
{4},8,7-2[4:1],,
{4},1,2-7[4:1],,
{4},8,8,,
{4},6^1[4:1],,,
{4},2^5[4:1],,,
{4},8,7,8,
{16}1,,,2,,,2,,,,,,,,,,
{4}4,3,4,5/4,
{4}5,6,5,4/5,
{4}4,3,4,4/5,
{4}3,2,1,,
{4}7,6,7,8/1,
{4}2,3,2,8/1,
{4}7,6,7,1/8,
{4}7,6,5,,
{4}1b/8,4,7,2,
{4}5,8,3,6,
{4}8/1,4,7,2,
{4}5,8,3,6,
{4}8b/1,6,3,8,
{4}5,2,7,4,
{4}1/8,6,3,8,
{4}5,2,7,4,
{8}1h[4:1],,2,,3h[4:1],2,2,,
{8}5h[4:1],,6,,7h[4:1],6,6,,
{8}8h[1719:427],,7,,6h[4:1],7,7,,
{1}8-5[2:1],
{8}4h[4:1],,3,,2h[4:1],3,3,,
{8}1h[4:1],,2,,3h[4:1],2,2,,
{8}8h[1719:427],,7,,6h[4:1],7,7,,
{4}6/2,3/7,2/6,,
{4}3/8b,6/1b,3/8b,,
{4}8/1,2/7,8b/1b,
E
&inote_4=(127.0){1},
{2}5h[4:1],4h[4:1],
{2}5h[4:1],4h[4:1],
{4}6h[4:1],4,3h[4:1],5,
{4}4,5,6/3,6/3,
{8}2,,7,,8,1,2/5,,
{8}7,,2,,1,8,7/4,,
{8}2,,7,,8,1,2/5,,
{8}7,,2,,1,8,7/4,,
{8}2/6,,7/3,,8,1,2/5,,
{8}7/3,,2/6,,1,8,7/4,,
{8}2/6,,7/3,,8,1,2/5,,
{8}7/3,,2/6,,1,8,4/7^4[4:1],,
{4},,3,3,
{4}5,2h[2:1],4,7,
{4}1/8,2/6,5/3,2^7[2:1]/6^3[2:1],
{4},,,2/6,
{8}8h[4:1]/6h[4:1],,,,3/5,4,3/5,,
{8}3h[4:1]/1h[4:1],,,,6/4,5,6/4,,
{8}3/5,5,2,,6/4,4,7,,
{8}4/6,6,3,,5/3,3,6,,
{4}4/1h[4:1],,1/4,2/1,
{4}7/6,3/4,5/4h[4:1],5b,
{4}5/8h[4:1],,5/8,8/7,
{4}2/3,6/5,4/5h[4:1],4b,
{4}4/6h[4:1],5,5/3h[4:1],4,
{4}4/5h[4:1],4,5/4h[4:1],5,
{4}5/3h[4:1],4,4/6h[4:1],5,
{4}3/4,5/6,7/2,5/4,
{8}1,8,7h[2:1],,6,,3,,
{8}5,4,3h[2:1],,2,,7,,
{4}8/4,7/3,1/5,2/6,
{4}8/4,7/3,2/8,4/6,
{4}2/3h[4:3],7,8,5,
{4}7/6h[4:3],2,1,4,
{4}5,3,2/1,4/3,
{2}3-6[8:1],5-8[8:1],
{4}3/7,1,6/2,7/3,
{4}1/2,6/5,7,7,
{4}2/5,4/7,2/5,7/4,
{4}8,4,1-5[8:1],,
{4}6,6/5,3,4/3,
{4}7/5h[4:1],7,2/4h[4:1],2,
{4}8/4,1/5,3/7,1^6[4:1]/5^2[4:1],
{8},,,1-4[4:1],,,,,
{8}6/2,,3/7,,2/6,7b,7b,,
{4}6/2,7/3,2/6,
E
&inote_5=(127.0){1},
{4}7h[1:1],1,5,3,
{4}1h[1:1],3,7,2,
{4}8h[1:1],6,2,7,
{4}1,3/2,1/8,7/6,
{8}2,,3-8[4:1],,1,1,1,,
{8}7,,6-1[4:1],,8,8,8,,
{8}2,,3-8[4:1],,1,1,1,,
{4}1/6,4/7,2/5,3/8,
{8}2,,3-8[4:1],,1,1,1,,
{8}7,,6-1[4:1],,8,8,8,,
{8}2,,3-8[4:1],,1,1,1,,
{4}4/8,2/6,5/1,3/7,
{8}6/5h[4:1],,4,,8/1,7/8,1/2,,
{8}2/1h[4:1],,8,,5/4,4/3,6/5,,
{8}3/4h[4:1],,5,,1/8h[4:1],6,3,,
{16}2/7,,3,4,,6,5,,,,,,7/2,,,,
{8}6/5h[4:1],,4,,8/1h[2:1],2,3,,
{8}8h[4:1],,7,,4/5h[2:1],6,7,,
{8}1h[4:1],,2,,1/8h[4:1],7,6,,
{16}5/4,,2,2,,7,7,,,,1b,,1b,,,,
{16}2,,3,,2,,3,2,,4,,2h[4:1],,,,,
{16}6,,7,,6,,7,6,,8,,6h[4:1],,,,,
{16}2,,3,,2,,3,2,,4,,2h[4:1],,,,,
{16}2/7,,5,4,,8h[16:7],,1h[16:5],,,,,,,,,
{16}7,,6,,7,,6,7,,5,,7h[4:1],,,,,
{16}3,,2,,3,,2,3,,1,,3h[4:1],,,,,
{16}7,,6,,7,,6,7,,5,,7h[4:1],,,,,
{16}7/2,,1,8,,4h[16:7],,5h[1367:425],,,,,,,,,
{8}8h[1:1],7,1,,3,4,4,,
{8}1h[1:1],2,8,,6,5,5,,
{8}5h[1:1],6,4,,2,1,1,,
{8}4h[2:1],3,5,,8,,7/2,,
{8}1-5[8:1],8,,7,8-4[8:1],1,,2,
{8}3-8[8:1],4,,2,6-1[8:1],5,,7,
{8}2-7[8:1],2,,,6-3[8:1],6,,,
{2}1>6[8:1]/5<2[8:1],1^6[8:1]/5^2[5000:617],
{8}6-1[2:1],,,,8,8,7-2[8:1],,
{8}3-8[2:1],,,,1,1,2-7[8:1],,
{2}8-3[4:1],6-1[4:1],
{2}7-4[4:1],5-2[4:1],
{8}7-4[2:1],,,,1,1,2-7[8:1],,
{8}5-2[2:1],,,,8,8,7-2[8:1],,
{8}3-8[2:1],,,,1,1,1-4[8:1],,
{4},6/3,5/4,1/8,
{8}2/6,,4/8,,7/3,2b,2b,,
{4}1/5,7/3,1/5,
E
