&title=パンダヒーロー
&artist=ハチ
&wholebpm=190
&demo_seek=67
&demo_len=20
&lv_1=2
&lv_2=6
&lv_3=7+
&lv_4=9+
&lv_5=12
&des_4=maimai TEAM
&des_5=ニャイン
&inote_1=(190.0){1},,,,,
{1}6,
{1}5,
{1}4,
{1}3,
{1}3,
{1}4,
{1}5,
{1}6,
{1}7,
{1}7,
{1}8,
{1}8,
{1}1,
{1}1,
{2}2,2,
{1}2,
{1}1h[2:1],
{2}8,8,
{1}8h[2:1],
{2}7,7,
{1}6,
{1}5,
{1}4,
{1}3-6[2:1],,
{1}7,
{1}8,
{1}1,
{1}2-7[2:1],,
{1}8,
{1}8,
{1}7,
{1}6,
{1}5,
{1}4,
{1}3,
{1}2,
{2}1,1,
{1}1,
{1}8h[2:1],
{2}1,1,
{1}1h[2:1],
{2}2,2,
{1}3,
{1}3,
{1}3-7[2:1],,
{1}7/8,
{1}1/2,
{1}8,
{1}1,
{1}7/8,
{1}1/2,
{1}1,
{1}2,
{1}3/4,
{1}5/6,
{1}7,
{1}8b,
{1}7/8,
{1}1/2,
{1}8,
{1}1b,
{2}2,2,
{1}1,
{2}8,8,
{1}7,
{2}7,7,
{1}8,
{2}1,1,
{2}2,2b,
E
&inote_2=(190.0){1},,,
{1}6,
{1}6,
{2}6/3,5,
{2}4,3,
{2}3,4,
{2}5,6,
{2}3/6,5,
{2}4,3,
{2}1/8,2,
{1}3,
{2}7,2-7[4:1],{1},
{2}6,3-6[4:1],{1},
{2}7,2,
{2}1,8-5[4:1],{1},
{2}5,4,
{2}6/5,7/2,
{2}8,1,
{2}8/1,2/1,
{2}3/4,5/4,
{2}8,8,
{2}1,1,
{2}7,8,
{4}7,,8,8b,
{1}7-4[2:1],,
{1}4h[2:1],
{1}3h[2:1],
{1}2-7[2:1],,
{1}7h[2:1],
{1}7-2[4:1],
{2},1/2,
{2}7,6,
{2}7,8/7,
{2}2,3,
{2}2,7,
{2}2/6,2/6,
{2}8,1,
{1}2h[2:1],
{2}7,8/7,
{2}1,2,
{2}1,2/1,
{2}8,7,
{1}6-2[2:1],,
{2}2,1,
{4}7,7,7b,,
{2}2,7,
{2}4,5,
{2},3,
{2},6,
{2}6/1,3/8,
{2}1/6,3/8,
{2},7h[2:1],
{2},2,
{2}2,7,
{2}4,5,
{2}4,5,
{2},7b/2b,
{2}2,7,
{2}4,5,
{1}2h[2:1],
{4}6,7,8,1-4[625:312],{1},
{2}4,5,
{2}6,5,
{1}4,
{2}7,8,
{1}1,
{2}2,1,
{2}8,8,
E
&inote_3=(190.0){1},,,,,
{4}3h[4:1],2,2,,
{4}2,1,8,8,
{4}7h[4:1],6,6,,
{4}6,5,5,,
{4}1h[4:1],2,2,,
{4}2,7,6,6,
{4}1/8,2,2,,
{4}2,3,4,2b/7b,
{4},8,7,6h[2:1],
{4},1,1,,
{4},3,2,3,
{4},1/2,1/8,,
{2}7h[4:1],6h[4:1],
{4}5h[4:1],,4,3/6,
{2}2h[2:1],1h[4:1],
{4}7/8,1,2b,,
{4}3,7h[4:1],,3h[4:1],
{4},1h[4:1],,5h[4:1],
{4},3h[4:1],,7h[4:1],
{4},1/8,2/7,,
{4}3,1h[4:1],,2/3,
{4}6,8h[4:1],,7/6,
{4}2,3h[4:1],,1,
{4},7,1/8,8b/1b,
{4},7-3[2:1],,,{1},
{4},6-2[2:1],,,{1},
{4},3-6[2:1],,,{1},
{4},7-2[2:1],,,{1},
{4},8,7,6h[4:1],
{4},1,1,,
{4},1,2,3,
{4},8/7,8/1,,
{2}7h[4:1],6h[4:1],
{4}5,4,3,2/1,
{2}1/8,4/5,
{4}2,8/1,7,,
{4}8,7h[4:1],,6h[4:1],
{4},2,1,,
{4}1,2h[4:1],,3h[4:1],
{4},7,8,,
{2}8/1,2/7,
{4}3,4,5,6,
{2}7h[4:1],8h[4:1],
{4}1,2,8/1,,
{2}2h[4:1],6h[4:1],
{2}4h[4:1],8h[4:1],
{1}1h[2:1],
{4}6,5,4,,
{2}2h[4:1],6h[4:1],
{2}4h[4:1],8h[4:1],
{833},2h[1666:831],,,,,,,,,,,,,,,,,,,,,,,,,,,,,,,,,,,,,,,,,,,,,,,,,,,,,,,,,,,,,,,,,,,,,,,,,,,,,,,,,,,,,,,,,,,,,,,,,,,,,,,,,,,,,,,,,,,,,,,,,,,,,,,,,,,,,,,,,,,,,,,,,,,,,,,,,,,,,,,,,,,,,,,,,,,,,,,,,,,,,,,,,,,,,,,,,,,,,,,,,,,,,,,,,,,,,,,,,,,,,,,,,,,,,,,,,,,,,,,,,,,,,,,,,,,,,,,,,,,,,,,,,,,,,,,,,,,,,,,,,,,,,,,,,,,,,,,,,,,,,,,,,,,,,,,,,,,,,,,,,,,,,,,,,,,,,,,,,,,,,,,,,,,,,,,,,,,,,,,,,,,,,,,,,,,,,,,,,,,,,,,,,,,,,,,,,,,,,,,,,,,,,,,,,,,,,,,,,,,,,,,,,,,,,,,,,,,,,,,,,,,,,,,,,,,,,,,,,,,,,,,,,,,,,,,,,,,,,,,,,,,,,,,,,,,,,,,,,,,,,,,,,,,,,,,,,,,,,,,,,,,,,,,,,,,,,,,,,,,,,,,,,,,,,,,,,,,,,,,,,,,,,,,,,,,,,,,,,,,,,,,,,,,,,,,,,,,,,,,,,,,,,,,,,,,,,,,,,,,,,,,,,,,,,,,,,,,,,,,,,,,,,,,,,,,,,,,,,,,,,,,,,,,,,,,,,,,,,,,,,,,,,,,,,,,,,,,,,,,,,,,,,,,,,,,,,,,,,,,,,,,,,,,,,,,,,,,,,,,,,,,,,,,,,,,,,,,,,,,,,,,,,,,,,,,,,,,,,,,,,,,,,,,,,,,,,,,,,,,,,,,,,,,,,,,,,,,,,,,,,,,,,,,,,,,,
{4}7,7,8h[4:1],,
{2}2h[4:1],6h[4:1],
{2}4h[4:1],8h[4:1],
{4},7,,3,
{4},1/2,1/8,,
{2}2h[4:1],6h[4:1],
{2}4h[4:1],8h[4:1],
{1}4-8[4:1],
{4}7,1,2,1b/8b,
{4}3h[4:1],2,2,,
{4}2,1,8,8,
{4}7h[4:1],6,6,,
{4}6,5,5,,
{4}1h[4:1],2,2,,
{4}2,7,6,6,
{4}1/8,2,2,,
{4}2,3,4,7b/2b,
E
&inote_4=(190.0){1},,,,,
{8}4h[4:1]/5h[4:1],,,,2/7,,,6h[4:1],
{8},5,,,1/8,,8,,
{8}2h[4:1],,3,,2/6,,,6h[4:1],
{8},7,,,1/2,,8,,
{8}4h[4:1]/5h[4:1],,,,3/6,,,8h[4:1],
{8},7,,,1/3,,3,,
{8}8h[4:1],,1,,8/1,,,3h[4:1],
{8},2,,,1,,7^2[4:1],,
{4},,2h[4:1],7,
{4}3,4/2,5/3,4/6,
{4}7h[4:1],6,3h[4:1],2,
{1}3^6[4:1],
{4}7-2[4:1],,1h[4:1],8,
{4}7-2[4:1],,1,4/5,
{4}4h[2:1],,5,2/4,
{4}4/5h[2:1],7,1,,
{4}5,6h[4:1],7,2h[4:1],
{4}3,7h[4:1],8,,
{4}1,8h[4:1],1,2h[4:1],
{4}7,7,3/6,,
{4}3,3,6h[4:1],7,
{4}6,5/3h[4:1],4h[4:1],6,
{1}7h[4:7],
{4}1,1,1,1^6[10000:7509],{1},
{835},,,,,,,,,,,,,,,,,,,,,,,,,,,,,,,,,,,,,,,,,,,,,,,,,,,,,,,,,,,,,,,,,,,,,,,,,,,,,,,,,,,,,,,,,,,,,,,,,,,,,,,,,,,,,,,,,,,,,,,,,,,,,,,,,,,,,,,,,,,,,,,,,,,,,,,,,,,,,,,,,,,,,,,,,,,,,,,,,,,,,,,,,,,,,,,,,,,,,,,,,,,,,,,,,,,,,,,,,,,,,,,,,,,,,,,,,,,,,,,,,,,,,,,,,,,,,,,,,,,,,,,,,,,,,,,,,,,,,,,,,,,,,,,,,,,,,,,,,,,,,,,,,,,,,,,,,,,,,,,,,,,,,,,,,,,,,,,,,,,,,,,,,,,,,,,,,,,,,,,,,,,,,,,,,,,,,,,,,,,,,,,,,,,,,,,,,,,,,,,,,,,,,,,,,,,,,,,,,,,,,,,,,,,,,,,,,,,,,,,,,,,,,,,,,,,,,,,,,,,,,,,,,,,,,,,,,,,,,,,,,,,,,,,,,,,,,,,,,,,,,,,,,,,,,,,,,,,,,,,,,,,,,,,,,,,,,,,,,,,,,,,,,,,,,,,,,,,,,,,,,,,,,,,,,,,,,,,,,,,,,,,,,,,,,,,,,,,,,,,,,,,,,,,,,,,,,,,,,,,,,,,,,,,6^3[4:3],,,,,,,,,,,,,,,,,,,,,,,,,,,,,,,,,,,,,,,,,,,,,,,,,,,,,,,,,,,,,,,,,,,,,,,,,,,,,,,,,,,,,,,,,,,,,,,,,,,,,,,,,,,,,,,,,,,,,,,,,,,,,,,,,,,,,,,,,,,,,,,,,,,,,,,,,,,,,,,,,,,,,,,,,,,,,,,,,,,,,,,,,,,,,,,,,,,,,,,,,,,,,,,,{1},
{4},,,2-7[4:3],{1},,
{2}7h[2:1],6h[2:1],
{1}7-2[4:1],
{4}8h[4:1],1,2/1h[2:1],2,
{4}3,4,6/5,,
{1}3^6[4:1],
{4}4/3,5/4,6/5,,
{4}2h[4:1],1,2/7h[4:1],8,
{4}1,1,7/3,6/2,
{4}8/1,,3/7,3/7,
{4}6/4,3/5,4/5,,
{4}5,7h[4:1],4,3h[4:1],
{4}5,2/7h[4:1],3,,
{4}1,2h[4:1],3,7h[4:1],
{4}8,1,2,,
{2}6h[4:1]/3h[4:1],8/2,
{4}2/6,7/3,2/5,7/4,
{4}5h[4:1],4,3,2,
{4}1,6,8/7,,
{2}1/6,3/8,
{2}1/5,8/4,
{4}1h[4:1],2,5h[4:1],6,
{4}7/3,6/4,2b,,
{2}1/6,3/8,
{2}1/5,8/4,
{2}3^6[4:1],7^2[4:1],
{4}7,2,2b,,
{2}6/1,8/3,
{2}5/1,4/8,
{4}7/2h[4:1],4,4/6h[4:1],5,
{4}2/6,4/8,7b/2b,,
{2}6/1,8/3,
{2}1/5,8/4,
{4}2h[4:1],1,3,4,
{4}6h[833:208],7,1-4[2:1],,
{8},,,,,,,6h[4:1],
{8},5,,,1/8,,8,,
{8}2h[4:1],,4,,6/2,,,6h[4:1],
{8},5,,,1,,8,,
{8}4h[4:1]/5h[4:1],,,,6/3,,,8h[4:1],
{8},7,,,3/1,,2,,
{4}8h[4:1],1,1/8,,
{4}2,7-2[4:1],,,
E
&inote_5=(190.0){1},
{8}4,5,4,,4,5,4,,
{8}2,1,2,1,2,
{89}1,,,,,,,,,,,
{891}2,,,,,,,,,,,,,,,,,,,,,,,,,,,,,,,,,,,,,,,,,,,,,,,,,,,,,,,,,,,,,,,,,,,,,,,,,,,,,,,,,,,,,,,,,,,,,,,,,,,,,,,,,,,,,,,,,,,,,,,,,,,,,,,,,,,,,,,,,,,,,,,,,,,,,,,,,,,,,,,,,,,,,,,,,,,,,,,,,,,,,,,,,,,,,,,,,,,,,,,,,,,,,,,,,,,,,,,,,,,,,,,,
{8}5,4,5,,5,4,5,,
{8}7,8,7,8,7,8,7,,
{8}2h[2:1],,3,3,3,,8,7,
{8},4,3,,8,8,8,,
{8}6h[2:1],,7,7,7,,4,3,
{8},8,7,,4,
{249}4,,,,,,,,,,,,,,,,,,,,,,,,,,,,,,,
{499}4,,,,,,,,,,,,,,,,,,,,,,,,,,,,,,,,,,,,,,,,,,,,,,,,,,,,,,,,,,,,,,,,,,,,,,,,,,,,,,,,,,,,,,,,,,,,,,,,,,,,,,,,,,,,,,,,,,,,,,,,,,,,,
{8}7h[2:1],,6,6,6,,1,2,
{8},5,6,,1,1,1,,
{8}3h[2:1],,2,2,2,,5,6,
{8},1,2,8,7,7,7b,,
{4}6/8h[4:1],2,2/4h[4:1],6,
{8}7,6,7,,1/8,,,,
{4}3/1h[4:1],7,7/5h[4:1],3,
{8}2,3,2,,4/5,,,,
{8}6,,8/4,,2,2,2,,
{8}3,,5/1,,7,7,7,,
{4}1,3,1,8,
{4}3,5h[2:1],4h[4:1],,
{8}1,2,3h[4:1],,7,6,5h[4:1],,
{8}2,2,1-4[4:1],,,,,,
{8}8,7,6h[4:1],,2,3,4h[4:1],,
{8}7,7,8,,4/5,,,,
{4}2h[4:1],6h[4:1],3h[4:1],7h[4:1],
{8}1h[4:1],,8h[4:1],,4,5,4,,
{4}1h[4:1],8h[4:1],4h[4:1],5h[4:1],
{4}3h[4:1],6,2/7b,1/8b,
{2}1-4[4:1],5-8[2:1],
{4},,1,2h[4:1],
{2}3-6[4:1],7-2[2:1],
{4},,3,2h[4:1],
{2}1-6[4:1],5-2[2:1],
{4},,1,8h[4:1],
{2}7-4[4:1],3-8[2:1],
{8},,2,,3,3,7b/2b,,
{4}7h[2:1],6,2h[2:1],3,
{4}6h[2:1],5,3h[4:1],4,
{4}6h[2:1],7,3h[2:1],2,
{4}8,1,8/1,,
{4}2h[4:1],7h[4:1],3h[4:1],6h[4:1],
{8}4h[4:1],,5h[4:1],,4,4,4,,
{4}5h[4:1],4h[4:1],6h[4:1],3h[4:1],
{8}7,7,7,,2/7,,,,
{8}1,2,3h[4:1],,7,6,5h[4:1],,
{8}2,2,1-4[4:1],,,,,,
{8}8,7,6h[4:1],,2,3,4h[4:1],,
{8}7,7,8,,5/4,,,,
{8}2/6,,4/8-4[4:1],,1,1,1b,,
{8}3/7,,5/1-5[4:1],,8,8,8b,,
{2}2-5[4:1],4-7[4:1],
{8}1,2,1,,8/1,,,,
{2}1h[4:1]/5h[4:1],7h[4:1]/3h[4:1],
{2}8h[4:1]/4h[4:1],6h[4:1]/2h[4:1],
{4}6h[1:1],7,8,1,
{8}2,2,2,,8/7,,,,
{2}1h[4:1]/5h[4:1],7h[4:1]/3h[4:1],
{2}8h[4:1]/4h[4:1],2h[4:1]/6h[4:1],
{2}7-2[4:1],3-6[4:1],
{4}3h[4:1],5,5/4,,
{2}5h[4:1]/1h[4:1],3h[4:1]/7h[4:1],
{2}4h[4:1]/8h[4:1],6h[4:1]/2h[4:1],
{8}4h[4:1],5,5,,8h[4:1],1,1,,
{8}3/2,4/3,5/4,,7h[4:1]/2h[4:1],,,,
{2}5h[4:1]/1h[4:1],7h[4:1]/3h[4:1],
{2}8h[4:1]/4h[4:1],2h[4:1]/6h[4:1],
{4}1^6[2:1],,2,2,
{4}4/5h[4:1],7,8/1,6b/3b,
{8}2h[2:1],,3,3,3,,8,7,
{8},4,3,,8,8,8b,,
{8}6h[2:1],,7,7,7,,4,3,
{8},8,7,,4,
{249}4,,,,,,,,,,,,,,,,,,,,,,,,,,,,,,,
{499}4,,,,,,,,,,,,,,,,,,,,,,,,,,,,,,,,,,,,,,,,,,,,,,,,,,,,,,,,,,,,,,,,,,,,,,,,,,,,,,,,,,,,,,,,,,,,,,,,,,,,,,,,,,,,,,,,,,,,,,,,,,,,,
{8}7h[2:1],,6,6,6,,1,2,
{8},5,6,,1,1,1b,,
{8}3h[2:1],,2,2,2,,5,6,
{8},1,2,8,7,7,1b/8b,
E
