&title=アイデンティティ
&artist=サカナクション [cover]
&wholebpm=140.0
&lv_1=2
&lv_2=5
&lv_3=7
&lv_4=8
&lv_5=9
&inote_1=(140.0){1},,,
{1}1,
{1}1,
{1}1,
{1}1,
{4}2,2,2,2,
{4},2,,2,
{4},2,,1,
{4},8,,7,
{4},7,,8/7,
{4},1,,2/1,
{4},1,,1,
{4}8,8,8,8,
{4},7,,7,
{4},8,,1,
{4},2,,2,
{4},3,,4,
{4},5/4,,5,
{4},6,,7,
{4},7,,7,
{4},7,,,
{1}8-5[2:1],,
{1}1-4[2:1],,
{4},3/4,,2,
{4},1,,2,
{4},2,,2,{1},
{1}1h[2:1],
{1}8h[2:1],
{1}1h[2:1],,
{4},7,,7/8,
{4},7,,8/7,
{4},7,,8/7,
{4},7,,,
{1}1h[2:1],
{1}8h[2:1],
{1}1h[2:1],,
{4},2/1,,2/1,
{4},1,1,1,
{4},2,2,2b,
{4},3,,4,
{4},5,,6,
{4},6,,5,
{4},4,,3,
{4},3,,4,
{4},5,,6,
{4},6,,5,
{4},4,,3b,
{4}2,2,2,2,
E
&inote_2=(140.0){1},,,
{1}3h[2:1],
{1}2h[2:1],
{1}1h[2:1],
{1}8h[2:1],
{4}1,1,1,1,
{4}8,8,8,8,
{4},2,,1,
{4},8,,7,
{4}8,7,8,8/7,
{4}2,1,2,2/1,
{4}3,4,3,4/3,
{4}3,5,7,1/8,
{4},6,6,6,
{4},6h[2:1],,,
{4},3,3,3,
{4},3h[2:1],,,
{4},5/4,4,5,
{4},6,,7,
{4},7,8,1,
{4},2h[2:1],,,
{1}3-6[2:1],
{4},6,,6,
{1}7-2[2:1],
{4},,2,2,
{4},3/4,2,2,
{4},3,,2,
{4}1,1,1,8,{1},
{4}1,1,1,1,
{4}2,2,2,2,
{4}1,1,1,1,{1},
{4},6,5,3/4,
{4},3,4,6/5,
{4},6,7,8/1,
{4},3,2,8/1,
{4}1/2,1/2,1/2,1/2,
{4}7/8,7/8,7/8,7/8,
{4}1/8,1/8,1/8,1/8,{1},
{4},7,8,7,
{4},1/7,8/1,8/2,
{4},1,1,1b,
{4}7,6,5,4,
{4}2,3,4,5,
{4}7,6,5,4,
{4}2,3,4,5,
{4}6,5,4,2,
{4}3,4,5,7,
{4}6,5,4,2,
{4}4,3,2,1b,
{4}7/8,1/2,1/8,2/7,
E
&inote_3=(140.0){1},,,
{4}8h[4:7],,,2,
{4},,,2,
{4}1h[4:7],,,7,
{4},,,7,
{4}1/8h[4:7],1,1,1,
{4}2,2,2,2,
{4},5/6,,3/4,
{4},6/5,,5/7,
{4}6,8,2,1/7,
{4}3,1,7,2/8,
{4}6,8,2,7/1,
{4}6/3,7/3,6/2,1/8,
{4}7-3[4:1],,,2,
{4}7h[4:1],1,2h[4:1],8,
{4}2-6[4:1],,,7,
{4}2h[4:1],4,7h[4:1],5,
{4}1,8/1,7,6,
{4},5/6,,4/5,
{4}2,1,8,7,
{4}6,1h[2:1],,,
{4}3-6[4:1],,,7,
{4}8h[4:1],2,1h[4:1],7,
{4}7-2[4:1],,,2,
{278}4h[4:1],,,,,,,,,,,,,,,,,,,,,,,,,,,,,,,,,,,,,,,,,,,,,,,,,,,,,,,,,,,,,,,,,,,,,6,,,,,,,,,,,,,,,,,,,,,,,,,,,,,,,,,,,,,,,,,,,,,,,,,,,,,,,,,,,,,,,,,,,,,,
{4}5h[4:1],3,
{4}4,4/5,4,3,
{4},1/2,,1/8,
{4}6,5,4,3,{1},
{4}1/8h[4:3],1,1,1,
{4}1/7h[4:3],1,1,1,
{4}1/8h[4:3],1,1,1,
{4}1,1,1,1,
{4},6/5,5,3/4,
{4},4/3,4,5/6,
{4},6,7,8/1,
{4},3,2,8/1,
{4}8/1h[4:3],8,8,8,
{4}8/2h[4:3],8,8,8,
{4}8/1h[4:3],8,8,8,
{4}8,8,8,8,
{8},,7,,8,,7,7,
{8},7,,8,8,,8/2,,
{4},1,1,1b,
{8}8/7,,8,1,2,,2/1,,
{8}1/2,,2,1,8,,8/7,,
{4}4/6h[4:3],3,2,2,
{4}4/3h[4:3],5,6,6,
{8}2/1,,1,8,7,,7/8,,
{8}8/7,,7,8,1,,1/2,,
{4}4/3h[4:3],5,6,6,
{4}5/6h[4:3],4,3,4b,
{4}6/3,3/7,6/2,1/8,
E
&inote_4=(140.0){1},,,
{4}1,1,1,1,
{4}2,3,4,5,
{4}3,6,2,7,
{4}1,8,1h[4:1],,
{8}2,3,4,5,6,7,8,1,
{8}2,3,4,5,6,7,8,,
{4}6,3,7,2,
{4}8,1,8h[4:13],,
{4}4,4,4,4,
{4}4,4,4,4,
{4}4,4,4,4,
{4}6h[4:1],2h[4:1],8h[4:1],4b,
{4}6,5,3,4,
{4}6,5-2[8:1],,4,
{4}6-1[8:1],,3,4-7[8:1],
{4},5,3-8[8:1],,
{2}1-4[8:1],8-5[8:1],
{2}1-4[8:1],8-5[8:1],
{4}2,3,7,6,
{4}8,4/1,5,,
{4}1,2,8,7,
{4}1h[2:1],2,8,7h[2:1],
{4}1,2,8h[2:1],7,
{4}1,2h[2:1],8,7,
{4}1h[2:1],4,8h[2:1],5,
{4}1h[2:1],4,8h[2:1],5,
{8}1,,8,,7-2[8:1],,,6b,
{4},,,5-1[16:1],
{4},1,1,1-6[16:1],
{4},6,6,6-2[16:1],
{4},2,2,2,
{8}2,,2,,4,,3-6[4:1],2,
{8},,,,5,,6-3[4:1],7,
{8},,,,2,,1-5[4:1],8,
{8},,,,7,,8-4[4:1],1,
{4},,,4-1[4:1]/5-8[4:1],
{4},,,1-6[4:1]/2-5[4:1],
{4},,,7-4[4:1]/8-3[4:1],{1},
{8},,,,5h[8:3],,6,6h[8:3],
{8},5,,,4h[8:3],,3,3h[8:7],
{8},4b,,4b,,4b,,,
{8},6,6,6,6,7,8,1,
{8}7/2,,7/2,1,7/2,,1/8,,
{8}2/7,,7/2,8,7/2,,1/8,,
{4}6/7,8/7,1/8,2/1,
{8}3,2,2,3,8h[4:1],,,,
{8}2/7,,2/7,8,2/7,,8/1,,
{8}2/7,,7/2,1,7/2,,1/8,,
{4}2/3,2/1,1/8,8/7,
{8}6,7,7,6,1h[4:1],,,,
{4}3h[4:1],7h[4:1],1h[4:1],5b,
E
&inote_5=
(140.0){1},,,
{4}3/8h[4:7],3,3,3,
{4}3,3,3,3,
{4}3/1h[4:7],4,5,6,
{4}7,6,5,4,
{8}3/8h[4:7],3,3,3,3,3,3,3,
{8}3,3,3,3,3,3,3,,
{8}5/6,,3/4,6,5/7,,2/4,3,
{8}7h[2:1],1,8,2,8,,1/7,,
{16}7,,,8,,,1,,5,,4,,4/5,,7,,
{16}2,,,1,,,8,,4,,5,,4/5,,2,,
{16}7,,,8,,,1,,2,,1,,1/2,,7,,
{4}6/4,5/2,7/3,2b/1b,
{8}2-6[8:1],7,7,7,7-3[8:1],2,2,2,
{4}8h[4:1],2,1h[4:1],7,
{8}2-6[8:1],5,5,5,7-3[8:1],4,4,4,
{4}1h[4:1],6,8h[4:1],3,
{8}2/8,1,7/3,,7,,6,,
{8}1-5[8:1],7,7,,2/8-4[8:1],,1,,
{8}1h[4:1],,2h[4:1],,3h[4:1],,4h[4:1],6,
{8},7,,7h[8:3],,,,,
{8}2-5[8:1],8,7,8,7-4[8:1],1,2,1,
{4}6h[4:1],5,3h[4:1],4,
{8}8-3[8:1],8,1,2,1-6[8:1],1,8,7,
{4}5/6h[4:1],5,4/3h[4:1],4,
{8}8/2,1,7/3,,7,,6,,
{8}1-5[8:1],7,7,,2/8-4[8:1],,1,,
{8}8h[4:1],7,7h[4:1],6,6h[4:1],5,5h[4:1],4,
{8}3,3,3,3b,,,,,
{4}2/8-5[8:1],2,2/7-4[8:1],2,
{4}1/3-6[8:1],1,1/4-7[8:1],1,
{4}2/7-4[8:1],2,2/6-3[8:1],2,
{4}1,1,1,1,
{8}8/2,1,7/1,,5/7,6,4/6,,
{8}2/4,3,1/3,,1/7,8,6/8,,
{4}7/6h[4:3],8,1,2,
{4}2/3h[4:3],1,8,7,
{4}6/8-4[8:1],6,6/2-5[8:1],6,
{4}7/6-3[8:1],7,7/4-1[8:1],7,
{4}8/6-3[8:1],8,8/5-1[8:1],8,
{4}7/6^3[8:1],7,7/3^8[8:1],7,
{8}5,,3,,1,,7,6/8,
{8},7,,5,4,7,6/3,,
{8},5,4,5,4,5,3,6,
{8}8/7,,2/1,3/1,1/2,,8/7,,
{4}6/5-2[8:1],3-8[8:1],6-1[8:1],,
{4}4/6h[4:3],3,2,2,
{8}3h[4:3],5,5,5,6h[4:1],,,,
{8}2/1,,7/8,8/6,7/8,,1/2,,
{4}3/4-7[8:1],6-1[8:1],3-8[8:1],,
{4}4/3h[4:3],5,6,6,
{8}6h[4:3],4,3,3,3h[4:1],,,,
{4}6/3,3/7,2/6,8b/1b,
E
